Всегда рабочее зеркало без VPN и Proxy просто перед .vidak.icu напиши любое слово или цифру, Пример http://xkt8.vidak.icu

iTunes

2 сезон

1 сезон

1

1 сезон

iTunes

2 сезон

13

1 сезон

Deluxe

pack

Рекомендуем

Пиратка

30

ВАЖНО

RePack

MK11

RePack

jed

RePack

fifa19

RePack

RDR2

RePack

NEED FOR SPEED™ PAYBACK

Кинопоиск HD

6 сезон

 Острые козырьки 6 сезон

Все сериалы

все сериалы на PB.wtf

RePack

FAR CRY 5

Anonymous, нам критически не хватает 5601 руб. на оплату серверов и переферии за Апрель, помоги нам пожалуйста, вся надежда только на тебя. В благодарность мы отключим тебе всю рекламу на сайте!

×
  
Magnet ссылка

Принц и нищий / Kleinruppin forever (Карстен Фибелер) [2004 г., Мелодрама, комедия, DVDRip-AVC, Авторский (одноголосый)] от ExKinoRay pb.wtf

Принц и нищий через торрент pb.wtf

Размер: 2.7 GB | Добавлен: 4 года 1 мес. назад | Торрент скачан:3 раза
Смотреть онлайн Принц и нищий | Скачать    Ребята, помогите собрать деньги на оплату серверов!!!

22-04-2018 19:59 Принц и нищий Скачать торрент  

Принц и нищий / Kleinruppin forever
Год выпуска: 2004
Страна: Германия
Жанр: Мелодрама, комедия
Продолжительность: 01:39:05
Перевод: Авторский (одноголосый)
Субтитры: Русские

Режиссер: Карстен Фибелер

Премьера в мире: 8 февраля 2004

rating

В ролях: Тобиас Шенке, Анна Брюггеманн, Михаэль Гвиздек, Тино Мевес, Тобиас Казимирович, Тони Снетбергер, Себастиан Крёнерт, Уве Коккиш, Хейк Йонса, Михаэль Кинд

Описание: Тим и Рони, два брата-близнеца, ещё младенцами были разлучены и оказались по разные стороны "Берлинской стены". Но провидению было угодно, чтобы они встретились. Тим, перспективный теннисист, баловень судьбы, едет на экскурсию в ГДР, где сталкивается лицом к лицу с родным братом, который был не настолько удачлив и благоустроен, но зато был прыток и коварен. Не теряя времени, Рони устраивает так, что уезжает вместо брата в ФРГ, оставив недоумевающего и растерянного Тима в серой коммунистической стране. Но встретив девушку, которая всколыхнула в нём незнакомые и сильные чувства, Тим перестаёт замечать серость бытия, и предоставившаяся возможность вернуться обратно домой ставит его перед нелёгким выбором...

Доп. информация: Перевод: Авторский (одноголосый) – Юрий Сербин

Качество: DVDRip-AVC
Формат: MKV
Видео кодек: MPEG4
Аудио кодек: AC3
Видео: MPEG-4 AVC, 3000 Кбит/с, 716x572@1018x572, 25 кадров/сек
Аудио#1: Русский (AC3, 6 ch, 448 Кбит/с, 48 КГц)
Аудио#2: Немецкий (AC3, 6 ch, 448 Кбит/с, 48 КГц)
Релиз от:




raw [info]: 716x572p 64:45 @ 25/1 fps (cfr)
x264 [info]: using SAR=64/45
x264 [info]: using cpu capabilities: MMX2 SSE2Fast LZCNT
x264 [info]: profile High, level 4.1
x264 [info]: frame I:1117 Avg QP:18.28 size: 74899
x264 [info]: frame P:31830 Avg QP:20.98 size: 28841
x264 [info]: frame B:115702 Avg QP:22.76 size: 10613
x264 [info]: consecutive B-frames: 1.5% 2.2% 7.3% 23.5% 19.5% 37.2% 4.9% 2.0% 0.7% 0.4% 0.2% 0.2% 0.1% 0.1% 0.0% 0.0% 0.1%
-----
Общее
Уникальный идентификатор : 228288471656998649832629648324138215120 (0xABBEC2A6721EA3D297D59A41E44DA6D0)
Полное имя : D:\ExKinoRay\Kleinruppin.forever.2004.DVDRip-AVC.ExKinoRay.mkv
Формат : Matroska
Версия формата : Version 2
Размер файла : 2,70 Гбайт
Продолжительность : 1 ч. 39 м.
Общий поток : 3897 Кбит/сек
Дата кодирования : UTC 2018-04-22 17:52:59
Программа кодирования : mkvmerge v7.8.0 ('River Man') 32bit built on Apr 3 2015 12:11:22
Библиотека кодирования : libebml v1.3.1 + libmatroska v1.4.2

Видео
Идентификатор : 1
Формат : AVC
Формат/Информация : Advanced Video Codec
Профиль формата : High@L4.1
Параметр CABAC формата : Да
Параметр ReFrames формата : 14 кадров
Идентификатор кодека : V_MPEG4/ISO/AVC
Продолжительность : 1 ч. 39 м.
Битрейт : 3000 Кбит/сек
Ширина : 716 пикселей
Высота : 572 пикселя
Соотношение сторон : 16:9
Режим частоты кадров : Постоянный
Частота кадров : 25,000 кадров/сек
Цветовое пространство : YUV
Субдискретизация насыщенности : 4:2:0
Битовая глубина : 8 бит
Тип развёртки : Прогрессивная
Бит/(Пиксели*Кадры) : 0.293
Размер потока : 2,02 Гбайт (75%)
Библиотека кодирования : x264 core 148 r2638 7599210
Настройки программы : cabac=1 / ref=14 / deblock=1:-2:-2 / analyse=0x3:0x133 / me=umh / subme=10 / psy=1 / psy_rd=1.05:0.15 / mixed_ref=1 / me_range=32 / chroma_me=1 / trellis=2 / 8x8dct=1 / cqm=0 / deadzone=21,11 / fast_pskip=0 / chroma_qp_offset=-3 / threads=4 / lookahead_threads=1 / sliced_threads=0 / nr=0 / decimate=0 / interlaced=0 / bluray_compat=0 / constrained_intra=0 / bframes=16 / b_pyramid=2 / b_adapt=2 / b_bias=0 / direct=3 / weightb=1 / open_gop=0 / weightp=2 / keyint=250 / keyint_min=25 / scenecut=40 / intra_refresh=0 / rc=2pass / mbtree=0 / bitrate=3000 / ratetol=1.0 / qcomp=0.60 / qpmin=0 / qpmax=69 / qpstep=4 / cplxblur=20.0 / qblur=0.5 / ip_ratio=1.40 / pb_ratio=1.30 / aq=1:1.00
Язык : English
Default : Да
Forced : Нет
Цветовой диапазон : Limited
Основные цвета : BT.601 NTSC
Характеристики трансфера : BT.601
Коэффициенты матрицы : BT.601

Аудио #1
Идентификатор : 2
Формат : AC-3
Формат/Информация : Audio Coding 3
Расширение режима : CM (complete main)
Параметр Endianness формата : Big
Идентификатор кодека : A_AC3
Продолжительность : 1 ч. 39 м.
Вид битрейта : Постоянный
Битрейт : 448 Кбит/сек
Каналы : 6 каналов
Расположение каналов : Front: L C R, Side: L R, LFE
Частота : 48,0 КГц
Частота кадров : 31,250 кадров/сек (1536 spf)
Метод сжатия : С потерями
Размер потока : 318 Мбайт (11%)
Заголовок : Сербин
Язык : Russian
Default : Да
Forced : Нет

Аудио #2
Идентификатор : 3
Формат : AC-3
Формат/Информация : Audio Coding 3
Расширение режима : CM (complete main)
Параметр Endianness формата : Big
Идентификатор кодека : A_AC3
Продолжительность : 1 ч. 39 м.
Вид битрейта : Постоянный
Битрейт : 448 Кбит/сек
Каналы : 6 каналов
Расположение каналов : Front: L C R, Side: L R, LFE
Частота : 48,0 КГц
Частота кадров : 31,250 кадров/сек (1536 spf)
Метод сжатия : С потерями
Размер потока : 318 Мбайт (11%)
Язык : German
Default : Нет
Forced : Нет

Текст
Идентификатор : 4
Формат : UTF-8
Идентификатор кодека : S_TEXT/UTF8
Идентификатор кодека/Информация : UTF-8 Plain Text
Язык : Russian
Default : Да
Forced : Нет

pb.wtf



Скачать Принц и нищий через торрент http://d.radikal.ru/d22/1804/dd/ea613dcd7f26.jpg Скачать, смотреть онлайн Принц и нищий бесплантно в хорошем качестве Описание: Тим и Рони, два брата-близнеца, ещё младенцами были разлучены и оказались по разные стороны "Берлинской стены". Но провидению ... 10 10 2
Info! Золотая раздача, скачанное не засчитывается.
Торрент: Зарегистрирован [2018-04-22 19:59] · скачан: 3 раз
Статус: √ проверено
Размер: 2.7 GB
Как cкачать? Как скачать Принц и нищий через торрент | UTorrent

28-11-2019 20:33  

Отключить всю рекламу на сайте

22-04-2018 20:23 Принц и нищий Скачать торрент  

Топик был перенесен из форума Оформление раздач (Кино, Видео и ТВ) в форум Фильмы с авторской озвучкой


-Lexx-pb.wtf



    Дорогой пользователь! Огромная просьба, поблагодарите релизера, оцените раздачу и оставьте свои комментарий, если Вы скачали Принц и нищий через торрент бесплатно!
    Комментировать посты могут только пользователи прошедшие не сложную регистрацию
    Показать сообщения:    

    Принц и нищий через торрент
    Скачать бесплатно Принц и нищий
    Принц и нищий скачать торрент
    Принц и нищий смотреть онлайн
    Cкачать фильм Принц и нищий бесплатно
    Принц и нищий скачать торрент в хорошем качестве
    Принц и нищий смотреть онлайн бесплатно в хорошем качестве


    Вы не можете начинать темы
    Вы не можете отвечать на сообщения
    Вы не можете редактировать свои сообщения
    Вы не можете удалять свои сообщения
    Вы не можете голосовать в опросах
    Вы не можете прикреплять файлы к сообщениям
    Вы можете скачивать файлы