Мега распродажа FORZA HORIZON 4 ULTIMATE+ВСЕ DLC+ОНЛАЙН всего за 499р. 349 руб. (супер цена). Внимание количество ограничено!!!

iTunes

1+1

iTunes

мы

iTunes

1

1 сезон

Чернобыль

1 сезон

Ральф против интернета

Лицензия

ПШазам

8 сезон

Игра престолов

Лицензия

30
pack

ВАЖНО

!!Акция!!

Alien_RageХит недели

RePack

Resident Evil 21

ИГРА 18+

pack

RePack

Metro:Exodus

!!Акция!!

Alien_Rage

RePack

fifa19

RePack

Assassins Creed: Odyssey

RePack

NEED FOR SPEED™ PAYBACK

3 сезон

9 сезон

Бесстыжие 9 сезон

Все сериалы

все сериалы на PB.wtf

RePack

FAR CRY 5
Ребята, катастрофически не хватает 2730р. для оплаты серверов за ИЮНЬ (всвязи с блокировками трафик упал в 3 раза), 1-2р., выручайте.
  

Менталист / The Mentalist / Сезон: 2 / Серии 1-23 из 23 (2009) WEB-DLRip / ТВ3 pb.wtf

Менталист через торрент pb.wtf

Размер: 16.55 GB | Добавлен: 4 года 9 мес. назад | Торрент скачан:662 раза
Скачать  

15-10-2014 18:16 Менталист Скачать торрент  

Название: Менталист
Оригинальное название: The Mentalist
Год выхода: 2009
Жанр: детектив, драма, криминал
Режиссер: Крис Лонг, Дэвид Баррет, Дэвид Наттер

В ролях: Саймон Бейкер, Робин Танни, Тим Кенг, Овайн Йомэн, Аманда Риджетти, Грегори Итцин, Бодхи Элфмэн, Винн Эверетт, Аластер Маккензи, Крис Таллман и др.

Описание: Патрик Джейн — детектив и независимый консультант из Калифорнийского Бюро Расследований (КБР), он использует свои отточенные, как лезвие, навыки наблюдения для раскрытия тяжких преступлений. В самом Бюро Джейн известен за частые нарушения протокола, а также за его звездное прошлое: он работал медиумом, однако теперь сам признает, что симулировал паранормальные способности. Роль Джейна в раскрытии целой серии загадочных преступлений высоко ценится коллегами. Но суровый старший агент Тереза Лисбон против того, чтоб Джейн работал с ее отрядом, и то вынужденно признает его успехи, то критикует его за театральность, нарциссизм и отсутствие границ.



Страна: США
Продолжительность: ~ 00:43:00
Перевод: Профессиональный (полное дублирование) ТВ3

Файл
Качество видео: WEB-DLRip (источник: WEB-DL 720p)
Формат видео: AVI
Видео кодек: XviD
Аудио кодек: AC3
Видео: 720x400 (1.80:1), 23,976 fps, XviD MPEG-4 ~1999 kbps avg, 0.28 bit/pixel
Аудио Rus: 48 kHz, AC3 Dolby Digital, 2/0 (L,R) ch, ~192.00 kbps avg / ТВ3 /
Аудио Eng: 48 kHz, AC3 Dolby Digital, 2/0 (L,R) ch, ~192.00 kbps avg / Оригинал /


1. Искупление (Redemption)

2. Алая буква А (The Scarlett Letter)

3. Красный значок (Red Badge)

4. Красная угроза (Red Menace)

5. Сильный испуг (Red Scare)

6. Черное золото и красная кровь (Black Gold and Red Blood)

7. Красные Быки (Red Bulls)

8. Его кровавая правая рука (His Red Right Hand)

9. Цена дороже жемчугов (A Price Above Rubies)

10. Метание Огня (Throwing Fire)

11. Розовые Очки (Rose-Colored Glasses)

12. Сопереживающий (Bleeding Heart)

13. Красная линия (Redline)

14. Кровные Узы (Blood in, Blood Out)

15. Отвлекающий Маневр (Red Herring)

16. Красный Код (Code Red)

17. Красная Коробка (The Red Box)

18. Красная Вода (Aingavite Baa)

19. Кровавые Деньги (Blood Money)

20. Всё в красном (Red All Over)

21. 18-5-4(18-5-4)

22. Красное письмо (Red Letter)

23. Красное небо по утру(Red Sky in the Morning)

Видео

Идентификатор : 0

Формат : MPEG-4 Visual

Профиль формата : Advanced Simple@L5

Параметр BVOP формата : 2

Параметр QPel формата : Нет

Параметр GMC формата : Без точки перехода

Параметр матрицы формата : Default (MPEG)

Режим смешивания : Сжатый битовый поток

Идентификатор кодека : XVID

Идентификатор кодека/Подсказка : XviD

Продолжительность : 43 м.

Битрейт : 1998 Кбит/сек

Ширина : 720 пикс.

Высота : 400 пикс.

Соотношение сторон : 16:9

Частота кадров : 23,976 кадр/сек

Цветовое пространство : YUV

Подвыборка цветности : 4:2:0

Битовая глубина : 8 бит

Тип развёртки : Прогрессивная

Метод сжатия : С потерями

Бит/(Пиксели*Кадры) : 0.289

Размер потока : 619 Мбайт (83%)

Библиотека кодирования : XviD 58

Аудио #1

Идентификатор : 1

Формат : AC-3

Формат/Информация : Audio Coding 3

Расширение режима : CM (complete main)

Идентификатор кодека : 2000

Продолжительность : 43 м.

Вид битрейта : Постоянный

Битрейт : 192 Кбит/сек

Канал(ы) : 2 канала(ов)

Расположение каналов : Front: L R

Частота : 48,0 КГц

Битовая глубина : 16 бит

Метод сжатия : С потерями

Размер потока : 59,5 Мбайт (8%)

Выравнивание : Разделение по промежуткам

Продолжительность промежутка : 42 мс. (1,00 видеокадр)

Время предзагрузки промежутка : 500 ms

Аудио #2

Идентификатор : 2

Формат : AC-3

Формат/Информация : Audio Coding 3

Расширение режима : CM (complete main)

Идентификатор кодека : 2000

Продолжительность : 43 м.

Вид битрейта : Постоянный

Битрейт : 192 Кбит/сек

Канал(ы) : 2 канала(ов)

Расположение каналов : Front: L R

Частота : 48,0 КГц

Битовая глубина : 16 бит

Метод сжатия : С потерями

Размер потока : 59,5 Мбайт (8%)

Выравнивание : Разделение по промежуткам

Продолжительность промежутка : 42 мс. (1,00 видеокадр)

Время предзагрузки промежутка : 500 ms
скриншот   скриншот   скриншот  pb.wtf



Скачать Менталист через торрент http://linkme.ufanet.ru/images/0939de261689d467ea9bbc61e3ee67f6.jpg Скачать фильм Менталист через торрент бесплантно в хорошем качестве Описание: Патрик Джейн — детектив и независимый консультант из Калифорнийского Бюро Расследований (КБР), он использует свои отточенные, ... 9.7 10 21
Info! Золотая раздача, скачанное не засчитывается.
Торрент: Зарегистрирован [2014-10-15 18:16] · скачан: 662 раз
Статус: √ проверено
Размер: 16.55 GB
Как cкачать? Как скачать Менталист через торрент | qTorrent


>> Регистрируемся здесь <<






Отзывы и комментарии о схеме читаем и пишем здесь: ---> Отзывы и комментарии о схеме

Новые благодарочки в телеграм довольных пользователей:
скриншот   скриншот   скриншот   скриншот   скриншот

23-04-2018 03:42 Менталист Скачать торрент  

Сериал немного наивный, но как то втянулся. Спасибо за раздачу.pb.wtf



    Дорогой пользователь! Огромная просьба, поблагодарите релизера, оцените раздачу и оставьте свои комментарий, если Вы скачали Менталист через торрент бесплатно! Внесите свою лепту в развитие PiratBit!
    Комментировать посты могут только пользователи прошедшие не сложную регистрацию
    Показать сообщения:    

    Менталист через торрент
    Скачать бесплатно Менталист
    Менталист скачать торрент
    Менталист смотреть онлайн
    Cкачать фильм Менталист бесплатно
    Менталист скачать торрент в хорошем качестве
    Менталист смотреть онлайн бесплатно в хорошем качестве


    Вы не можете начинать темы
    Вы не можете отвечать на сообщения
    Вы не можете редактировать свои сообщения
    Вы не можете удалять свои сообщения
    Вы не можете голосовать в опросах
    Вы не можете прикреплять файлы к сообщениям
    Вы можете скачивать файлы