новый адрес
Ссылка на приватное зеркало всего за 1$. Внимание количество ограничено!!!

iTunes

1+1

iTunes

мы

WEB-DL

1

iTunes

Чернобыль

iTunes

Ральф против интернета

Лицензия

ПШазам

Лицензия

Оно 2

Лицензия

30
pack

Вам бонус

ВАЖНО

!!Акция!!

Alien_RageХит недели

RePack

Resident Evil 21

ИГРА 18+

pack

RePack

jed

!!Акция!!

Alien_Rage

RePack

fifa19

RePack

Assassins Creed: Odyssey

RePack

NEED FOR SPEED™ PAYBACK

3 сезон

9 сезон

Бесстыжие 9 сезон

Все сериалы

все сериалы на PB.wtf

RePack

FAR CRY 5
Ребята, катастрофически не хватает 1900р. для оплаты серверов за Октябрь (всвязи с блокировками трафик упал в 3 раза), 1-2р., выручайте.
  

Колония / Colony / Сезон: 3 / Серии: 1-13 из 13 (Хуан Хосе Кампанелла) [2018, фантастика, WEB-DL 1080p] MVO [Jaskier] pb.wtf

Колония через торрент pb.wtf

Размер: 34.51 GB | Добавлен: 1 год 4 мес. назад | Торрент скачан:9 раз
Скачать  

05-05-2018 06:06 Колония Скачать торрент  

Колония / Colony
Год выпуска: 2018
Страна: США
Жанр: фантастика
Продолжительность: ~ 00:43:00 серия
Перевод: Профессиональный (многоголосый) | Jaskier
Субтитры: английские

Режиссер: Хуан Хосе Кампанелла

rating

В ролях:

Джош Холлоуэй, Сара Уэйн Кэллис, Питер Джекобсон, Аманда Ригетти, Алекс Нюстадтер, Изабелла Крамп, Гонсало Менендес, Элли Уокер, Либэ Барер, Д.Дж. Бликенстафф и др.

Описание:

В ближайшем будущем семья пытается спасти жителей оккупированного Лос-Анджелеса. Бывший агент ФБР Уилл Боумэн и его супруга Кейти пробуют вернуть сына. Уилл готов работать на новое правительство, тогда как многие в городе поддерживают повстанцев. Лидер режима Прокси Снайдер предлагает Уиллу сделку, которая изменит их жизнь и заставит семью пойти на большой риск.

Качество: WEB-DL 1080p
Формат: MKV

Видео: ~ 11200 kbps, 1920x1080, 23.976 fps
Аудио#1 Rus: AC3, 6 ch, 384 kbps
Аудио#2 Eng: AC3, 6 ch, 384 kbps
скриншот  скриншот  скриншот  

Общее
Уникальный идентификатор : 253382825244950161984699250621616876315 (0xBE9FC1CE3E36A3BCAA84403D8F71EB1B)
Полное имя : F:\Colony. Season 3 (WEB-DL l 1080p l Jaskier)\Colony.S03E01.1080p.WEB-DL.DD5.1.H.264-Jaskier.mkv
Формат : Matroska
Версия формата : Version 2
Размер файла : 3,47 Гбайт
Продолжительность : 41 м. 13 с.
Режим общего битрейта : Переменный
Общий поток : 12,0 Мбит/сек
Дата кодирования : UTC 2018-05-04 20:37:38
Программа кодирования : mkvmerge v7.8.0 ('River Man') 32bit built on Apr 3 2015 12:11:22
Библиотека кодирования : libebml v1.3.1 + libmatroska v1.4.2

Видео
Идентификатор : 1
Формат : AVC
Формат/Информация : Advanced Video Codec
Профиль формата : High@L4
Параметр CABAC формата : Да
Параметр RefFrames формата : 4 кадра
Идентификатор кодека : V_MPEG4/ISO/AVC
Продолжительность : 41 м. 13 с.
Вид битрейта : Переменный
Битрейт : 11,0 Мбит/сек
Максимальный битрейт : 15,0 Мбит/сек
Ширина : 1920 пикселей
Высота : 1080 пикселей
Соотношение сторон : 16:9
Режим частоты кадров : Постоянный
Частота кадров : 23,976 (24000/1001) кадра/сек
Цветовое пространство : YUV
Субдискретизация насыщенности : 4:2:0
Битовая глубина : 8 бит
Тип развёртки : Прогрессивная
Бит/(Пиксели*Кадры) : 0.222
Размер потока : 3,18 Гбайт (92%)
Язык : English
Default : Да
Forced : Нет
Цветовой диапазон : Limited
Основные цвета : BT.709
Характеристики трансфера : BT.709
Коэффициенты матрицы : BT.709

Аудио #1
Идентификатор : 2
Формат : AC-3
Формат/Информация : Audio Coding 3
Расширение режима : CM (complete main)
Параметр Endianness формата : Big
Идентификатор кодека : A_AC3
Продолжительность : 41 м. 13 с.
Вид битрейта : Постоянный
Битрейт : 384 Кбит/сек
Каналы : 6 каналов
Расположение каналов : Front: L C R, Side: L R, LFE
Частота : 48,0 КГц
Частота кадров : 31,250 кадров/сек (1536 spf)
Метод сжатия : С потерями
Размер потока : 113 Мбайт (3%)
Заголовок : Jaskier
Язык : Russian
Default : Да
Forced : Нет

Аудио #2
Идентификатор : 3
Формат : AC-3
Формат/Информация : Audio Coding 3
Расширение режима : CM (complete main)
Параметр Endianness формата : Big
Идентификатор кодека : A_AC3
Продолжительность : 41 м. 13 с.
Вид битрейта : Постоянный
Битрейт : 384 Кбит/сек
Каналы : 6 каналов
Расположение каналов : Front: L C R, Side: L R, LFE
Частота : 48,0 КГц
Частота кадров : 31,250 кадров/сек (1536 spf)
Метод сжатия : С потерями
Размер потока : 113 Мбайт (3%)
Язык : English
Default : Нет
Forced : Нет

Текст
Идентификатор : 4
Формат : UTF-8
Идентификатор кодека : S_TEXT/UTF8
Идентификатор кодека/Информация : UTF-8 Plain Text
Язык : English
Default : Нет
Forced : Нет

Когда раздача ведётся путём добавления новых серий, при каждом добавлении создётся новый торрент. Чтобы начать докачку новой серии, пользователям необходимо сделать следующее:
(1) остановить скачивание,
(2) удалить старый торрент у себя из клиента (старые серии удалять не надо),
(3) скачать новый торрент и запустить его у себя в клиенте вместо старого, при этом указать клиенту путь в старую папку, куда и должно происходить скачивание новых серий.
Ваш клиент при этом должен произвести хеширование (проверку) старой папки (если не производит сам - помогите ему сделать это), и будет докачивать только те серии, которых у вас ещё нет. Старые серии при этом не удаляются, а продолжают раздаваться!
Eсли вы уже удалили старые серии, то предотвратить повторную закачку старых серий можно, отжав галочку в соответсвующих местах при запуске нового торрента. По возможности, желательно не удалять старые серии как можно дольше, чтобы релизёр не столько продолжал раздавать старые серии, а смог сконцентрироваться на новых.
pb.wtf



Скачать Колония через торрент http://i104.fastpic.ru/big/2018/0504/82/43550a9bc9f172cc3389909c23211b82.png Скачать фильм Колония через торрент бесплантно в хорошем качестве Описание: В ближайшем будущем семья пытается спасти жителей оккупированного Лос-Анджелеса. Бывший агент ФБР Уилл Боумэн и его супруга Кейти ... 7.8 10 8
Info! Золотая раздача, скачанное не засчитывается.
Торрент: Зарегистрирован [2018-07-28 18:41] · скачан: 9 раз
Статус: √ проверено
Размер: 34.51 GB
Как cкачать? Как скачать Колония через торрент | qTorrent

% Раздел Тема Автор DL S | L
Зарубежные сериалы [ 36.47 GB ] Колония / Colony / Сезон: 3 / Серии: 1-13 из 13 [2018 WEB-DL 1080p] MVO [LostFilm] bober100 Скачать
1 | 0
Зарубежные сериалы [ 12.63 GB ] Колония / Colony / Сезон: 3 / Серии: 1-13 из 13 [2018 WEBRip 720p] MVO [Baibako] bober100 Скачать
1 | 0
Зарубежные сериалы [ 11.99 GB ] Колония / Colony / Сезон: 3 / Серии: 1-13 из 13 [2018 HDTVRip 720p] DVO [SunshineStudio] bober100 Скачать
1 | 0
Зарубежные сериалы [ 6.42 GB ] Колония / Colony / Сезон: 3 / Серии: 1-13 из 13 [2018 HDTVRip] DVO [SunshineStudio] bober100 Скачать
1 | 0
Зарубежные сериалы [ 12.62 GB ] Колония / Colony / Сезон: 3 / Серии: 1-13 из 13 [2018 . WEB-DL 720p] MVO [Jaskier] bober100 Скачать
1 | 0
Зарубежные сериалы [ 6.35 GB ] Колония / Colony / Сезон: 3 / Серии: 1-13 из 13 [2018 WEB-DLRip] MVO [Jaskier] bober100 Скачать
1 | 0


Последний раз редактировалось: bober100 (2018-07-28 18:41), всего редактировалось 4 раз(а)

28-11-2019 20:33  

Отключить всю рекламу на сайте

01-07-2018 08:30 Колония Скачать торрент  

Нудный фильм какой то, и это только 1 сезон такой?pb.wtf



10-07-2018 03:14 Колония Скачать торрент  

ParovozikDima писал(а):

Нудный фильм какой то, и это только 1 сезон такой?

2Й сезон как то пошустрей стал, 3й еще не смотрел.pb.wtf



    Дорогой пользователь! Огромная просьба, поблагодарите релизера, оцените раздачу и оставьте свои комментарий, если Вы скачали Колония через торрент бесплатно! Внесите свою лепту в развитие PiratBit!
    Комментировать посты могут только пользователи прошедшие не сложную регистрацию
    Показать сообщения:    

    Колония через торрент
    Скачать бесплатно Колония
    Колония скачать торрент
    Колония смотреть онлайн
    Cкачать фильм Колония бесплатно
    Колония скачать торрент в хорошем качестве
    Колония смотреть онлайн бесплатно в хорошем качестве


    Вы не можете начинать темы
    Вы не можете отвечать на сообщения
    Вы не можете редактировать свои сообщения
    Вы не можете удалять свои сообщения
    Вы не можете голосовать в опросах
    Вы не можете прикреплять файлы к сообщениям
    Вы можете скачивать файлы