Доктор Стрэндж

Лицензия

Добыча

MVO

Дом дракона

1 сезон

Тор

Лицензия

Мэверик

Лицензия

Там, где раки поют

MVO

Властелин колец

1 сезон

Ultimate

pack

Рекомендуем

30

Repack

ВАЖНО

ВАЖНО

Ghostwire

RePack

jed

RePack

nioh2

RePack

RDR2

RePack

NEED FOR SPEED™ PAYBACK

RePack

скачать торрент

Кинопоиск HD

Острые козырьки 6 сезон

6 сезон

FAR CRY 6

RePack

скачать торрент

Лицензия

скачать торрент

MVO

1

1 сезон

скачать торрент

1 сезон

скачать торрент

Лицензия

  

Спасти рядового Райана / Saving Private Ryan (Стивен Спилберг) [1998, Боевик, драма, военный, история, реальные события, UHD BDRemux 2160p] DUB+5xMVO+2xMVO (ukr) +5xAVO

Спасти рядового Райана через торрент pb.wtf

Раздают: 1 [ 0 KB/s ]
Размер: 104.15 GB | Добавлен: 4 года 5 мес. назад | Торрент скачан:131 раз
Смотреть онлайн | Скачать   

05-05-2018 20:36 Спасти рядового Райана Скачать торрент  

Спасти рядового Райана / Saving Private Ryan
Год выпуска: 1998
Страна: США
Жанр: Боевик, драма, военный, история, реальные события
Продолжительность: 02:49:27
Перевод: Дубляж, Профессиональный многоголосый, Авторский (одноголосый закадровый)
Субтитры: Russian (Forced, Full), English (Full, SDH)

Режиссер: Стивен Спилберг

rating

В ролях:

Том Хэнкс, Том Сайзмор, Эдвард Бёрнс, Бэрри Пеппер, Адам Голдберг, Вин Дизель, Джованни Рибизи, Джереми Дэвис, Мэтт Дэймон, Тед Дэнсон

Описание:

Капитан Джон Миллер получает тяжелое задание. Вместе с отрядом из восьми человек Миллер должен отправиться в тыл врага на поиски рядового Джеймса Райана, три родных брата которого почти одновременно погибли на полях сражений. Командование приняло решение демобилизовать Райана и отправить его на родину к безутешной матери. Но для того, чтобы найти и спасти солдата, крошечному отряду придется пройти через все круги ада…

Качество: UHD BDRemux 2160p
Формат: MKV

Видео: HEVC, 52.1 Мбит/с, 3840x2160, 23.976 кадр/с
Аудио#1: |RUS| DTS MA, 48.0 kHz, 6 ch, 4 202 kb/s | Дублированный |
Аудио#2: |RUS| AC-3, 48.0 kHz, 6 ch, 448 kb/s, CBR | Дублированный |
Аудио#3: |RUS| DTS MA, 48.0 kHz, 6 ch, 4 212 kb/s | MVO, Позитив-Мультимедиа |
Аудио#4: |RUS| DTS MA, 48.0 kHz, 6 ch, 4 213 kb/s | MVO, Карусель |
Аудио#5: |RUS| DTS MA, 48.0 kHz, 6 ch, 4 209 kb/s | AVO, А.Гаврилов |
Аудио#6: |RUS| DTS MA, 48.0 kHz, 6 ch, 4 213 kb/s | AVO, Ю.Живов |
Аудио#7: |RUS| DTS, 48.0 kHz, 6 ch, 1 509 kb/s | AVO, М. Чадов |
Аудио#8: |RUS| DTS, 48.0 kHz, 6 ch, 755 kb/s | MVO, Superbit |
Аудио#9: |RUS| AC-3, 48.0 kHz, 2 ch, 192 kb/s | MVO, ОРТ |
Аудио#10: |RUS| AC-3, 48.0 kHz, 2 ch, 192 kb/s | MVO, НТВ |
Аудио#11: |RUS| AC-3, 48.0 kHz, 2 ch, 192 kb/s | AVO, С.Визгунов |
Аудио#12: |RUS| AC-3, 48.0 kHz, 2 ch, 192 kb/s | AVO, Антонов |
Аудио#13: |UKR| AC-3, 48.0 kHz, 2 ch, 192 kb/s | MVO, НТН |
Аудио#14: |UKR| AC-3, 48.0 kHz, 2 ch, 192 kb/s | MVO, ICTV |
Аудио#15: |ENG| TrueHD+Atmos, 48.0 kHz, 8 ch, 5 467 kb/s | Original |
Аудио#16: |ENG| DTS MA, 48.0 kHz, 6 ch, 4 202 kb/s
Аудио#17: |ENG| AC-3, 48.0 kHz, 6 ch, 640 kb/s
Аудио#18: |ENG| AC-3, 48.0 kHz, 6 ch, 640 kb/s | Audiodescription |
скриншот  скриншот  скриншот  скриншот  

Общее
Уникальный идентификатор : 139006543021873327420479109702669889018 (0x6893AFB5C20FF94090DE595D4384EDFA)
Полное имя : Saving.Private.Ryan.1998.2160p.BDREMUX.HEVC.HDR.IVA(11xRUS.2xUKR.ENG).ExKinoRay.mkv
Формат : Matroska
Версия формата : Version 4 / Version 2
Размер файла : 104 Гбайт
Продолжительность : 2 ч. 49 м.
Режим общего битрейта : Переменный
Общий поток : 88,0 Мбит/сек
Название фильма : Спасти рядового Райана / Saving Private Ryan ( 1998 ) UHD BDRemux | HDR, 4K | IVA(RUS.UKR.ENG) | ExKinoRay
Дата кодирования : UTC 2018-05-05 14:21:09
Программа кодирования : mkvmerge v23.0.0 ('The Bride Said No') 64-bit
Библиотека кодирования : libebml v1.3.6 + libmatroska v1.4.9
Обложка : Yes

Видео
Идентификатор : 1
Формат : HEVC
Формат/Информация : High Efficiency Video Coding
Коммерческое название : HDR10
Профиль формата : Main [email protected]@High
Идентификатор кодека : V_MPEGH/ISO/HEVC
Продолжительность : 2 ч. 49 м.
Битрейт : 52,1 Мбит/сек
Ширина : 3840 пикселей
Высота : 2160 пикселей
Соотношение сторон : 16:9
Режим частоты кадров : Постоянный
Частота кадров : 23,976 (24000/1001) кадра/сек
Цветовое пространство : YUV
Субдискретизация насыщенности : 4:2:0 (Type 2)
Битовая глубина : 10 бит
Бит/(Пиксели*Кадры) : 0.262
Размер потока : 61,7 Гбайт (59%)
Язык : English
Default : Да
Forced : Нет
Цветовой диапазон : Limited
Основные цвета : BT.2020
Характеристики трансфера : PQ
Коэффициенты матрицы : BT.2020 non-constant
MasteringDisplay_Luminance : min: 0.0001 cd/m2, max: 1000 cd/m2

Аудио #1
Идентификатор : 2
Формат : DTS
Формат/Информация : Digital Theater Systems
Профиль формата : MA / Core
Идентификатор кодека : A_DTS
Продолжительность : 2 ч. 49 м.
Вид битрейта : Переменный / Постоянный
Битрейт : 4202 Кбит/сек / 1509 Кбит/сек
Каналы : 6 каналов
Расположение каналов : Front: L C R, Side: L R, LFE
Частота : 48,0 КГц
Частота кадров : 93,750 кадра/сек (512 SPF)
Битовая глубина : 24 бит
Метод сжатия : Без потерь / Lossy
Размер потока : 4,96 Гбайт (5%)
Заголовок : | Дублированный |
Язык : Russian
Default : Да
Forced : Нет

Аудио #2
Идентификатор : 3
Формат : AC-3
Формат/Информация : Audio Coding 3
Идентификатор кодека : A_AC3
Продолжительность : 2 ч. 49 м.
Вид битрейта : Постоянный
Битрейт : 448 Кбит/сек
Каналы : 6 каналов
Расположение каналов : Front: L C R, Side: L R, LFE
Частота : 48,0 КГц
Частота кадров : 31,250 кадров/сек (1536 SPF)
Битовая глубина : 16 бит
Метод сжатия : С потерями
Размер потока : 542 Мбайт (1%)
Заголовок : | Дублированный |
Язык : Russian
ServiceKind : Complete Main
Default : Нет
Forced : Нет

Аудио #3
Идентификатор : 4
Формат : DTS
Формат/Информация : Digital Theater Systems
Профиль формата : MA / Core
Идентификатор кодека : A_DTS
Продолжительность : 2 ч. 49 м.
Вид битрейта : Переменный / Постоянный
Битрейт : 4212 Кбит/сек / 1509 Кбит/сек
Каналы : 6 каналов
Расположение каналов : Front: L C R, Side: L R, LFE
Частота : 48,0 КГц
Частота кадров : 93,750 кадра/сек (512 SPF)
Битовая глубина : 24 бит
Метод сжатия : Без потерь / Lossy
Размер потока : 4,97 Гбайт (5%)
Заголовок : | MVO, Позитив-Мультимедиа |
Язык : Russian
Default : Нет
Forced : Нет

Аудио #4
Идентификатор : 5
Формат : DTS
Формат/Информация : Digital Theater Systems
Профиль формата : MA / Core
Идентификатор кодека : A_DTS
Продолжительность : 2 ч. 49 м.
Вид битрейта : Переменный / Постоянный
Битрейт : 4213 Кбит/сек / 1509 Кбит/сек
Каналы : 6 каналов
Расположение каналов : Front: L C R, Side: L R, LFE
Частота : 48,0 КГц
Частота кадров : 93,750 кадра/сек (512 SPF)
Битовая глубина : 24 бит
Метод сжатия : Без потерь / Lossy
Размер потока : 4,97 Гбайт (5%)
Заголовок : | MVO, Карусель |
Язык : Russian
Default : Нет
Forced : Нет

Аудио #5
Идентификатор : 6
Формат : DTS
Формат/Информация : Digital Theater Systems
Профиль формата : MA / Core
Идентификатор кодека : A_DTS
Продолжительность : 2 ч. 49 м.
Вид битрейта : Переменный / Постоянный
Битрейт : 4209 Кбит/сек / 1509 Кбит/сек
Каналы : 6 каналов
Расположение каналов : Front: L C R, Side: L R, LFE
Частота : 48,0 КГц
Частота кадров : 93,750 кадра/сек (512 SPF)
Битовая глубина : 24 бит
Метод сжатия : Без потерь / Lossy
Размер потока : 4,97 Гбайт (5%)
Заголовок : | AVO, А.Гаврилов |
Язык : Russian
Default : Нет
Forced : Нет

Аудио #6
Идентификатор : 7
Формат : DTS
Формат/Информация : Digital Theater Systems
Профиль формата : MA / Core
Идентификатор кодека : A_DTS
Продолжительность : 2 ч. 49 м.
Вид битрейта : Переменный / Постоянный
Битрейт : 4213 Кбит/сек / 1509 Кбит/сек
Каналы : 6 каналов
Расположение каналов : Front: L C R, Side: L R, LFE
Частота : 48,0 КГц
Частота кадров : 93,750 кадра/сек (512 SPF)
Битовая глубина : 24 бит
Метод сжатия : Без потерь / Lossy
Размер потока : 4,97 Гбайт (5%)
Заголовок : | AVO, Ю.Живов |
Язык : Russian
Default : Нет
Forced : Нет

Аудио #7
Идентификатор : 8
Формат : DTS
Формат/Информация : Digital Theater Systems
Идентификатор кодека : A_DTS
Продолжительность : 2 ч. 49 м.
Вид битрейта : Постоянный
Битрейт : 1509 Кбит/сек
Каналы : 6 каналов
Расположение каналов : Front: L C R, Side: L R, LFE
Частота : 48,0 КГц
Частота кадров : 93,750 кадра/сек (512 SPF)
Битовая глубина : 24 бит
Метод сжатия : С потерями
Размер потока : 1,78 Гбайт (2%)
Заголовок : | AVO, М. Чадов |
Язык : Russian
Default : Нет
Forced : Нет

Аудио #8
Идентификатор : 9
Формат : DTS
Формат/Информация : Digital Theater Systems
Идентификатор кодека : A_DTS
Продолжительность : 2 ч. 49 м.
Вид битрейта : Постоянный
Битрейт : 755 Кбит/сек
Каналы : 6 каналов
Расположение каналов : Front: L C R, Side: L R, LFE
Частота : 48,0 КГц
Частота кадров : 93,750 кадра/сек (512 SPF)
Битовая глубина : 24 бит
Метод сжатия : С потерями
Размер потока : 912 Мбайт (1%)
Заголовок : | MVO, Superbit |
Язык : Russian
Default : Нет
Forced : Нет

Аудио #9
Идентификатор : 10
Формат : AC-3
Формат/Информация : Audio Coding 3
Идентификатор кодека : A_AC3
Продолжительность : 2 ч. 49 м.
Вид битрейта : Постоянный
Битрейт : 192 Кбит/сек
Каналы : 2 канала
Расположение каналов : Front: L R
Частота : 48,0 КГц
Частота кадров : 31,250 кадров/сек (1536 SPF)
Битовая глубина : 16 бит
Метод сжатия : С потерями
Размер потока : 232 Мбайт (0%)
Заголовок : | MVO, ОРТ |
Язык : Russian
ServiceKind : Complete Main
Default : Нет
Forced : Нет

Аудио #10
Идентификатор : 11
Формат : AC-3
Формат/Информация : Audio Coding 3
Идентификатор кодека : A_AC3
Продолжительность : 2 ч. 49 м.
Вид битрейта : Постоянный
Битрейт : 192 Кбит/сек
Каналы : 2 канала
Расположение каналов : Front: L R
Частота : 48,0 КГц
Частота кадров : 31,250 кадров/сек (1536 SPF)
Битовая глубина : 16 бит
Метод сжатия : С потерями
Размер потока : 232 Мбайт (0%)
Заголовок : | MVO, НТВ |
Язык : Russian
ServiceKind : Complete Main
Default : Нет
Forced : Нет

Аудио #11
Идентификатор : 12
Формат : AC-3
Формат/Информация : Audio Coding 3
Идентификатор кодека : A_AC3
Продолжительность : 2 ч. 49 м.
Вид битрейта : Постоянный
Битрейт : 192 Кбит/сек
Каналы : 2 канала
Расположение каналов : Front: L R
Частота : 48,0 КГц
Частота кадров : 31,250 кадров/сек (1536 SPF)
Битовая глубина : 16 бит
Метод сжатия : С потерями
Размер потока : 232 Мбайт (0%)
Заголовок : | AVO, С.Визгунов |
Язык : Russian
ServiceKind : Complete Main
Default : Нет
Forced : Нет

Аудио #12
Идентификатор : 13
Формат : AC-3
Формат/Информация : Audio Coding 3
Идентификатор кодека : A_AC3
Продолжительность : 2 ч. 49 м.
Вид битрейта : Постоянный
Битрейт : 192 Кбит/сек
Каналы : 2 канала
Расположение каналов : Front: L R
Частота : 48,0 КГц
Частота кадров : 31,250 кадров/сек (1536 SPF)
Битовая глубина : 16 бит
Метод сжатия : С потерями
Размер потока : 232 Мбайт (0%)
Заголовок : | AVO, Антонов |
Язык : Russian
ServiceKind : Complete Main
Default : Нет
Forced : Нет

Аудио #13
Идентификатор : 14
Формат : AC-3
Формат/Информация : Audio Coding 3
Идентификатор кодека : A_AC3
Продолжительность : 2 ч. 49 м.
Вид битрейта : Постоянный
Битрейт : 192 Кбит/сек
Каналы : 2 канала
Расположение каналов : Front: L R
Частота : 48,0 КГц
Частота кадров : 31,250 кадров/сек (1536 SPF)
Битовая глубина : 16 бит
Метод сжатия : С потерями
Размер потока : 232 Мбайт (0%)
Заголовок : | MVO, НТН |
Язык : Ukrainian
ServiceKind : Complete Main
Default : Нет
Forced : Нет

Аудио #14
Идентификатор : 15
Формат : AC-3
Формат/Информация : Audio Coding 3
Идентификатор кодека : A_AC3
Продолжительность : 2 ч. 49 м.
Вид битрейта : Постоянный
Битрейт : 192 Кбит/сек
Каналы : 2 канала
Расположение каналов : Front: L R
Частота : 48,0 КГц
Частота кадров : 31,250 кадров/сек (1536 SPF)
Битовая глубина : 16 бит
Метод сжатия : С потерями
Размер потока : 232 Мбайт (0%)
Заголовок : | MVO, ICTV |
Язык : Ukrainian
ServiceKind : Complete Main
Default : Нет
Forced : Нет

Аудио #15
Идентификатор : 16
Формат : TrueHD
Профиль формата : TrueHD+Atmos / TrueHD
Идентификатор кодека : A_TRUEHD
Продолжительность : 2 ч. 49 м.
Вид битрейта : Переменный
Битрейт : 5467 Кбит/сек
Максимальный битрейт : 7932 Кбит/сек
Каналы : Object Based / 8 каналов
Расположение каналов : Object Based / Front: L C R, Side: L R, Back: L R, LFE
Частота : / 48,0 КГц
Частота кадров : 1200,000 кадров/сек (40 SPF)
Метод сжатия : Без потерь
Размер потока : 6,47 Гбайт (6%)
Заголовок : | Original, Atmos-THD |
Язык : English
Default : Нет
Forced : Нет

Аудио #16
Идентификатор : 17
Формат : DTS
Формат/Информация : Digital Theater Systems
Профиль формата : MA / Core
Идентификатор кодека : A_DTS
Продолжительность : 2 ч. 49 м.
Вид битрейта : Переменный / Постоянный
Битрейт : 4202 Кбит/сек / 1509 Кбит/сек
Каналы : 6 каналов
Расположение каналов : Front: L C R, Side: L R, LFE
Частота : 48,0 КГц
Частота кадров : 93,750 кадра/сек (512 SPF)
Битовая глубина : 24 бит
Метод сжатия : Без потерь / Lossy
Размер потока : 4,96 Гбайт (5%)
Заголовок : | Original, DTS-HD |
Язык : English
Default : Нет
Forced : Нет

Аудио #17
Идентификатор : 18
Формат : AC-3
Формат/Информация : Audio Coding 3
Идентификатор кодека : A_AC3
Продолжительность : 2 ч. 49 м.
Вид битрейта : Постоянный
Битрейт : 640 Кбит/сек
Каналы : 6 каналов
Расположение каналов : Front: L C R, Side: L R, LFE
Частота : 48,0 КГц
Частота кадров : 31,250 кадров/сек (1536 SPF)
Битовая глубина : 16 бит
Метод сжатия : С потерями
Размер потока : 776 Мбайт (1%)
Заголовок : | Original, AC3 Core |
Язык : English
ServiceKind : Complete Main
Default : Нет
Forced : Нет

Аудио #18
Идентификатор : 19
Формат : AC-3
Формат/Информация : Audio Coding 3
Идентификатор кодека : A_AC3
Продолжительность : 2 ч. 49 м.
Вид битрейта : Постоянный
Битрейт : 640 Кбит/сек
Каналы : 6 каналов
Расположение каналов : Front: L C R, Side: L R, LFE
Частота : 48,0 КГц
Частота кадров : 31,250 кадров/сек (1536 SPF)
Битовая глубина : 16 бит
Метод сжатия : С потерями
Размер потока : 776 Мбайт (1%)
Заголовок : | Audiodescription |
Язык : English
ServiceKind : Complete Main
Default : Нет
Forced : Нет

Текст #1
Идентификатор : 20
Формат : UTF-8
Идентификатор кодека : S_TEXT/UTF8
Идентификатор кодека/Информация : UTF-8 Plain Text
Продолжительность : 2 ч. 9 м.
Битрейт : 3 бит/сек
ElementCount : 81
Размер потока : 3,05 Кбайт (0%)
Заголовок : Forced
Язык : Russian
Default : Да
Forced : Да

Текст #2
Идентификатор : 21
Формат : UTF-8
Идентификатор кодека : S_TEXT/UTF8
Идентификатор кодека/Информация : UTF-8 Plain Text
Продолжительность : 2 ч. 40 м.
Битрейт : 87 бит/сек
ElementCount : 2182
Размер потока : 102 Кбайт (0%)
Заголовок : Full
Язык : Russian
Default : Нет
Forced : Нет

Текст #3
Идентификатор : 22
Формат : UTF-8
Идентификатор кодека : S_TEXT/UTF8
Идентификатор кодека/Информация : UTF-8 Plain Text
Продолжительность : 2 ч. 37 м.
Битрейт : 52 бит/сек
ElementCount : 1676
Размер потока : 60,8 Кбайт (0%)
Заголовок : Full
Язык : English
Default : Нет
Forced : Нет

Текст #4
Идентификатор : 23
Формат : UTF-8
Идентификатор кодека : S_TEXT/UTF8
Идентификатор кодека/Информация : UTF-8 Plain Text
Продолжительность : 2 ч. 37 м.
Битрейт : 55 бит/сек
ElementCount : 1798
Размер потока : 64,3 Кбайт (0%)
Заголовок : SDH
Язык : English
Default : Нет
Forced : Нет

Меню
00:00:00.000 : en:Memorial
00:03:48.352 : en:Omaha Beach
00:13:04.992 : en:Rallying
00:18:14.801 : en:Breakthrough
00:26:11.402 : en:Letters
00:35:29.710 : en:A Public Relations Mission
00:45:05.452 : en:Pool
00:56:57.372 : en:Private James Ryan
01:04:44.255 : en:Choices
01:13:03.754 : en:FUBAR
01:16:59.990 : en:Dog-Tags
01:23:22.997 : en:Radar Station
01:34:47.640 : en:Big Mystery
01:46:01.104 : en:One Decent Thing
01:58:53.459 : en:Paif
02:06:43.512 : en:Born Lucky
02:16:29.513 : en:Ammo
02:26:12.305 : en:The Alamo
02:32:00.653 : en:The Bridge
02:41:56.832 : en:Duty Roster




Скачать Спасти рядового Райана через торрент https://pic1.kartinco.top/images/11/peuwa.jpg Скачать, смотреть онлайн Спасти рядового Райана бесплантно в хорошем качестве Описание: Капитан Джон Миллер получает тяжелое задание. Вместе с отрядом из восьми человек Миллер должен отправиться в тыл врага на поиски ... 10 10 4
Info! Золотая раздача, скачанное не засчитывается.
Торрент: Зарегистрирован [2018-05-05 20:36] · скачан: 131 раз
Статус: √ проверено
Размер: 104.15 GB
Как cкачать? Как скачать Спасти рядового Райана через торрент | UTorrent

% Раздел Тема Автор DL S | L
Ultra HD (UHD: 2K, 4K, 8K) [ 45.69 GB ] Спасти рядового Райана / Saving Private Ryan | DUB + 3xMVO + 3xAVO + 2xMVO | 2160p sheker187 Скачать
1 | 0
Ultra HD (UHD: 2K, 4K, 8K) [ 117.14 GB ] Спасти рядового Райана / Saving Private Ryan | DUB + 4xMVO + 4xAVO + 2xMVO | 2160p sheker187 Скачать
1 | 0
Фильмы [HD 720p, 1080p] (Хороший звук DUB, MVO) [ 28.8 GB ] Спасти рядового Райана / Saving Private Ryan | DUB | 1080p _denis_100 Скачать
1 | 0

28-11-2019 20:33  


Отключить вcю реклaмy на сайте, в т.ч. и в плеере онлайн просмотра!

    Дорогой пользователь! Огромная просьба, поблагодарите релизера, оцените раздачу и оставьте свои комментарий, если Вы скачали Спасти рядового Райана через торрент бесплатно!!
    Комментировать посты могут только пользователи прошедшие не сложную регистрацию
    Показать сообщения:    


    Спасти рядового Райана через торрент
    Скачать бесплатно Спасти рядового Райана
    Спасти рядового Райана скачать торрент
    Спасти рядового Райана смотреть онлайн
    Cкачать фильм Спасти рядового Райана бесплатно
    Спасти рядового Райана скачать торрент в хорошем качестве
    Спасти рядового Райана смотреть онлайн бесплатно в хорошем качестве
    Вы не можете начинать темы
    Вы не можете отвечать на сообщения
    Вы не можете редактировать свои сообщения
    Вы не можете удалять свои сообщения
    Вы не можете голосовать в опросах
    Вы не можете прикреплять файлы к сообщениям
    Вы можете скачивать файлы