Всегда рабочее зеркало без VPN и Proxy просто перед .vidak.icu напиши любое слово или цифру, Пример http://c8vq.vidak.icu

Лицензия

MVO

1 сезон

1

1 сезон

iTunes

1 сезон

13

1 сезон

Deluxe

pack

Рекомендуем

Repack

30

ВАЖНО

RePack

MK11

RePack

jed

RePack

fifa19

RePack

RDR2

RePack

NEED FOR SPEED™ PAYBACK

Кинопоиск HD

6 сезон

 Острые козырьки 6 сезон

Все сериалы

все сериалы на PB.wtf

RePack

FAR CRY 5
  
Magnet ссылка

Загадочные исчезновения / Mysteries of the Missing / Сезон: 1 / Серии: 1-8 из 8 (Терри О'Куинн) [2017, Документально-постановочный, история, археология, путешествия, исследования, HDTVRip 720p] VO pb.wtf

Загадочные исчезновения через торрент pb.wtf

Размер: 10.79 GB | Добавлен: 4 года 3 мес. назад | Торрент скачан:35 раз
Смотреть онлайн Загадочные исчезновения | Скачать    Ребята, помогите собрать деньги на оплату серверов!!!

10-05-2018 09:32 Загадочные исчезновения Скачать торрент  

Загадочные исчезновения / Mysteries of the MissingГод выпуска: 2017
Страна: США
Жанр: Документально-постановочный, история, археология, путешествия, исследования
Продолжительность: ~ 00:41:30
Перевод: Профессиональный (одноголосый)
Субтитры: отсутствуют

Режиссер: Терри О'Куинн

rating

В ролях:

Терри О'Куинн

Описание:

Документальный сериал, в котором раскрываются теории о том, что же произошло на самом деле в судьбоносный день исчезновения, и что теперь наука может рассказать нам об этих событиях, с Терри О'Куинном в качестве рассказчика.

Качество: HDTVRip 720p
Формат: MKV

Видео: MPEG-4 AVC, 4500 Кбит/с, 1280x720
Аудио: Русский (AC3, 2 ch, 192 Кбит/с)
скриншот  скриншот  скриншот  

Общее
Уникальный идентификатор : 230583089105152165132098521680697166365 (0xAD78B00667012143B87572C621510A1D)
Полное имя : F:\КИНО\Mysteries of the Missing_s01_720p\02_Atlantis_The Lost Evidence.mkv
Формат : Matroska
Версия формата : Version 4 / Version 2
Размер файла : 1,36 Гбайт
Продолжительность : 41 м. 29 с.
Режим общего битрейта : Переменный
Общий поток : 4688 Кбит/сек
Дата кодирования : UTC 2018-01-14 11:14:46
Программа кодирования : mkvmerge v6.9.1 ('Blue Panther') 64bit built on Apr 18 2014 18:23:38
Библиотека кодирования : libebml v1.3.0 + libmatroska v1.4.1

Видео
Идентификатор : 1
Формат : AVC
Формат/Информация : Advanced Video Codec
Профиль формата : [email protected]
Настройки формата : CABAC / 3 Ref Frames
Параметр CABAC формата : Да
Параметр RefFrames формата : 3 кадра
Идентификатор кодека : V_MPEG4/ISO/AVC
Продолжительность : 41 м. 29 с.
Вид битрейта : Переменный
Битрейт : 4500 Кбит/сек
Максимальный битрейт : 8000 Кбит/сек
Ширина : 1280 пикселей
Высота : 720 пикселей
Соотношение сторон : 16:9
Режим частоты кадров : Постоянный
Частота кадров : 29,970 (30000/1001) кадров/сек
Стандарт вещания : NTSC
Цветовое пространство : YUV
Субдискретизация насыщенности : 4:2:0
Битовая глубина : 8 бит
Тип развёртки : Прогрессивная
Бит/(Пиксели*Кадры) : 0.163
Размер потока : 1,28 Гбайт (94%)
Библиотека кодирования : x264 core 114
Настройки программы : cabac=1 / ref=3 / deblock=1:0:0 / analyse=0x3:0x113 / me=hex / subme=7 / psy=1 / psy_rd=1.00:0.00 / mixed_ref=1 / me_range=16 / chroma_me=1 / trellis=1 / 8x8dct=1 / cqm=2 / deadzone=21,11 / fast_pskip=1 / chroma_qp_offset=-4 / threads=6 / sliced_threads=0 / slices=1 / nr=0 / decimate=1 / interlaced=0 / constrained_intra=0 / bframes=3 / b_pyramid=0 / b_adapt=1 / b_bias=0 / direct=1 / weightb=1 / open_gop=0 / weightp=2 / keyint=250 / keyint_min=25 / scenecut=40 / intra_refresh=0 / rc_lookahead=40 / rc=2pass / mbtree=1 / bitrate=4500 / ratetol=1.0 / qcomp=0.60 / qpmin=5 / qpmax=69 / qpstep=4 / cplxblur=20.0 / qblur=0.5 / vbv_maxrate=8000 / vbv_bufsize=7995 / nal_hrd=vbr / ip_ratio=1.40 / aq=1:1.00
Default : Да
Forced : Нет
Цветовой диапазон : Limited
Основные цвета : BT.709
Характеристики трансфера : BT.709
Коэффициенты матрицы : BT.709

Аудио
Идентификатор : 2
Формат : AC-3
Формат/Информация : Audio Coding 3
Идентификатор кодека : A_AC3
Продолжительность : 41 м. 29 с.
Вид битрейта : Постоянный
Битрейт : 192 Кбит/сек
Каналы : 2 канала
Расположение каналов : Front: L R
Частота : 48,0 КГц
Частота кадров : 31,250 кадров/сек (1536 SPF)
Битовая глубина : 16 бит
Метод сжатия : С потерями
Размер потока : 57,0 Мбайт (4%)
ServiceKind/String : Complete Main
Default : Да
Forced : Нет

pb.wtf



Скачать Загадочные исчезновения через торрент http://img12.lostpic.net/2018/05/10/a1350d1f185e9241bc620c89a1d66949.jpg Скачать, смотреть онлайн Загадочные исчезновения бесплантно в хорошем качестве Описание: Документальный сериал, в котором раскрываются теории о том, что же произошло на самом деле в судьбоносный день исчезновения, и ... 10 10 5
Info! Серебряная раздача, засчитывается только 50% скачанного.
Торрент: Зарегистрирован [2018-05-10 09:32] · скачан: 35 раз
Статус: √ проверено
Размер: 10.79 GB
Как cкачать? Как скачать Загадочные исчезновения через торрент | UTorrent

28-11-2019 20:33  

Отключить вcю реклaмy на сайте

    Дорогой пользователь! Огромная просьба, поблагодарите релизера, оцените раздачу и оставьте свои комментарий, если Вы скачали Загадочные исчезновения через торрент бесплатно!
    Комментировать посты могут только пользователи прошедшие не сложную регистрацию
    Показать сообщения:    

    Загадочные исчезновения через торрент
    Скачать бесплатно Загадочные исчезновения
    Загадочные исчезновения скачать торрент
    Загадочные исчезновения смотреть онлайн
    Cкачать фильм Загадочные исчезновения бесплатно
    Загадочные исчезновения скачать торрент в хорошем качестве
    Загадочные исчезновения смотреть онлайн бесплатно в хорошем качестве


    Вы не можете начинать темы
    Вы не можете отвечать на сообщения
    Вы не можете редактировать свои сообщения
    Вы не можете удалять свои сообщения
    Вы не можете голосовать в опросах
    Вы не можете прикреплять файлы к сообщениям
    Вы можете скачивать файлы