Всегда рабочее зеркало без VPN и Proxy просто перед .vidak.icu напиши любое слово или цифру, Пример http://nypl.vidak.icu

MVO

Лицензия

1 сезон

1

1 сезон

iTunes

1 сезон

13

1 сезон

Deluxe

pack

Рекомендуем

Repack

30

ВАЖНО

RePack

MK11

RePack

jed

RePack

fifa19

RePack

RDR2

RePack

NEED FOR SPEED™ PAYBACK

Кинопоиск HD

6 сезон

 Острые козырьки 6 сезон

Все сериалы

все сериалы на PB.wtf

RePack

FAR CRY 5
  
Magnet ссылка

Тоня против всех / I, Tonya (Крэйг Гиллеспи) [2017, комедия, драма, биография, спорт, BD Remux 1080p] 2xAVO +DUB [Лицензия] pb.wtf

Тоня против всех через торрент pb.wtf

Размер: 35.39 GB | Добавлен: 4 года 1 мес. назад | Торрент скачан:22 раза
Смотреть онлайн Тоня против всех | Скачать    Ребята, помогите собрать деньги на оплату серверов!!!

26-05-2018 12:59 Тоня против всех Скачать торрент  

Тоня против всех / I, Tonya Год выпуска: 2017
Страна: США
Жанр: комедия, драма, биография, спорт
Продолжительность: 01:59:59
Перевод:

#1. Дублированный | Лицензия
#2. Авторский | Сербин
#3. Авторский | Чадов

Субтитры: Русские, английские

Режиссер: Крэйг Гиллеспи

rating

В ролях:

Марго Робби, Себастьян Стэн, Эллисон Дженни, Джулианна Николсон, Пол Уолтер Хаузер, Бобби Каннавале, Бояна Новакович, Мэйзи Смит

Описание:

Американской фигуристке Тоне Хардинг пришлось нелегко: сначала тяжелое детство с грозной матерью, потом тяжелая юность, ранний брак с проходимцем и неудачи на соревнованиях из-за заниженных судьями оценок. А потом случился скандал: во время важнейших соревнований идея запугать конкурентку идёт не по плану…

Качество: BD Remux 1080p
Формат: MKV

Видео: MPEG-4 AVC, 1920x1080, 29.8 Mbit/s, 23.976 fps
Аудио#1: 48 kHz, AC3, DTS-HD MA, 5.1, 3564 Kbps | Дублированный | RUS |
Аудио#2: 48 kHz, DTS-HD MA 5.1 3676 Kbps | Авторский | Сербин |
Аудио#3: 48 kHz, DTS 5.1 1510 Kbps | Авторский | Чадов |
Аудио#4: 48 kHz, DTS-HD MA, 5.1, 3643 Kbps | Оригинал |ENG |
скриншот   скриншот   скриншот   скриншот  

Общее
Уникальный идентификатор : 208574092557952676687031117595956776495 (0x9CE9E8B75FEB2F9EA9B9ADB679208E2F)
Полное имя : D:\РЕМУКС!!!!!\Тоня против всех.BDRemux.mkv
Формат : Matroska
Версия формата : Version 4 / Version 2
Размер файла : 35,4 Гбайт
Продолжительность : 1 ч. 59 м.
Режим общего битрейта : Переменный
Общий поток : 42,2 Мбит/сек
Название фильма : Тоня против всех.BDRemux.thx:SPOMOPS
Дата кодирования : UTC 2018-05-21 17:58:30
Программа кодирования : mkvmerge v8.3.0 ('Over the Horizon') 64bit
Библиотека кодирования : libebml v1.3.1 + libmatroska v1.4.2
Attachments : I_2C-Tonya.jpg

Видео
Идентификатор : 1
Формат : AVC
Формат/Информация : Advanced Video Codec
Профиль формата : [email protected]
Настройки формата : CABAC / 4 Ref Frames
Параметр CABAC формата : Да
Параметр RefFrames формата : 4 кадра
Идентификатор кодека : V_MPEG4/ISO/AVC
Продолжительность : 1 ч. 59 м.
Вид битрейта : Переменный
Битрейт : 29,8 Мбит/сек
Максимальный битрейт : 36,5 Мбит/сек
Ширина : 1920 пикселей
Высота : 1080 пикселей
Соотношение сторон : 16:9
Режим частоты кадров : Постоянный
Частота кадров : 23,976 (24000/1001) кадра/сек
Цветовое пространство : YUV
Субдискретизация насыщенности : 4:2:0
Битовая глубина : 8 бит
Тип развёртки : Прогрессивная
Бит/(Пиксели*Кадры) : 0.600
Размер потока : 25,0 Гбайт (71%)
Язык : English
Default : Да
Forced : Нет

Аудио #1
Идентификатор : 2
Формат : DTS
Формат/Информация : Digital Theater Systems
Профиль формата : MA / Core
Идентификатор кодека : A_DTS
Продолжительность : 1 ч. 59 м.
Вид битрейта : Переменный / Постоянный
Битрейт : 3564 Кбит/сек / 1509 Кбит/сек
Каналы : 6 каналов
Расположение каналов : Front: L C R, Side: L R, LFE
Частота : 48,0 КГц
Частота кадров : 93,750 кадра/сек (512 SPF)
Битовая глубина : 24 бит
Метод сжатия : Без потерь / Lossy
Размер потока : 2,98 Гбайт (8%)
Заголовок : Русский DTS-HD MA - Дубляж
Язык : Russian
Default : Да
Forced : Да

Аудио #2
Идентификатор : 3
Формат : DTS
Формат/Информация : Digital Theater Systems
Профиль формата : MA / Core
Идентификатор кодека : A_DTS
Продолжительность : 1 ч. 59 м.
Вид битрейта : Переменный / Постоянный
Битрейт : 3676 Кбит/сек / 1509 Кбит/сек
Каналы : 6 каналов
Расположение каналов : Front: L C R, Side: L R, LFE
Частота : 48,0 КГц
Частота кадров : 93,750 кадра/сек (512 SPF)
Битовая глубина : 24 бит
Метод сжатия : Без потерь / Lossy
Размер потока : 3,08 Гбайт (9%)
Заголовок : Русский DTS-HD MA - АП (Сербин)
Язык : Portuguese
Default : Нет
Forced : Нет

Аудио #3
Идентификатор : 4
Формат : DTS
Формат/Информация : Digital Theater Systems
Идентификатор кодека : A_DTS
Продолжительность : 1 ч. 59 м.
Вид битрейта : Постоянный
Битрейт : 1509 Кбит/сек
Каналы : 6 каналов
Расположение каналов : Front: L C R, Side: L R, LFE
Частота : 48,0 КГц
Частота кадров : 93,750 кадра/сек (512 SPF)
Битовая глубина : 24 бит
Метод сжатия : С потерями
Размер потока : 1,26 Гбайт (4%)
Заголовок : Русский DTS - АП (Чадов)
Язык : Russian
Default : Нет
Forced : Нет

Аудио #4
Идентификатор : 5
Формат : DTS
Формат/Информация : Digital Theater Systems
Профиль формата : MA / Core
Идентификатор кодека : A_DTS
Продолжительность : 1 ч. 59 м.
Вид битрейта : Переменный / Постоянный
Битрейт : 3643 Кбит/сек / 1509 Кбит/сек
Каналы : 6 каналов
Расположение каналов : Front: L C R, Side: L R, LFE
Частота : 48,0 КГц
Частота кадров : 93,750 кадра/сек (512 SPF)
Битовая глубина : 24 бит
Метод сжатия : Без потерь / Lossy
Размер потока : 3,05 Гбайт (9%)
Заголовок : Английский DTS-HD MA - Оригинал
Язык : English
Default : Нет
Forced : Нет

Текст #1
Идентификатор : 6
Формат : UTF-8
Идентификатор кодека : S_TEXT/UTF8
Идентификатор кодека/Информация : UTF-8 Plain Text
Продолжительность : 1 ч. 58 м.
Битрейт : 101 бит/сек
ElementCount : 1279
Размер потока : 88,4 Кбайт (0%)
Заголовок : Русские
Язык : Russian
Default : Нет
Forced : Нет

Текст #2
Идентификатор : 7
Формат : UTF-8
Идентификатор кодека : S_TEXT/UTF8
Идентификатор кодека/Информация : UTF-8 Plain Text
Продолжительность : 1 ч. 50 м.
Битрейт : 108 бит/сек
ElementCount : 1266
Размер потока : 87,7 Кбайт (0%)
Заголовок : Русские
Язык : Russian
Default : Нет
Forced : Нет

Текст #3
Идентификатор : 8
Формат : UTF-8
Идентификатор кодека : S_TEXT/UTF8
Идентификатор кодека/Информация : UTF-8 Plain Text
Продолжительность : 1 ч. 58 м.
Битрейт : 61 бит/сек
ElementCount : 1779
Размер потока : 53,2 Кбайт (0%)
Заголовок : Английские
Язык : English
Default : Нет
Forced : Нет

Текст #4
Идентификатор : 9
Формат : UTF-8
Идентификатор кодека : S_TEXT/UTF8
Идентификатор кодека/Информация : UTF-8 Plain Text
Продолжительность : 1 ч. 56 м.
Битрейт : 83 бит/сек
ElementCount : 1909
Размер потока : 71,1 Кбайт (0%)
Заголовок : Английские - SDH
Язык : English
Default : Нет
Forced : Нет

Текст #5
Идентификатор : 10
Формат : UTF-8
Идентификатор кодека : S_TEXT/UTF8
Идентификатор кодека/Информация : UTF-8 Plain Text
Продолжительность : 1 ч. 56 м.
Битрейт : 142 бит/сек
ElementCount : 1909
Размер потока : 121 Кбайт (0%)
Заголовок : Английские - (SDH-Colored)
Язык : English
Default : Нет
Forced : Нет

Меню
00:00:00.000 : en:00:00:00.000
00:18:16.804 : en:00:18:16.804
00:36:27.685 : en:00:36:27.685
00:55:08.514 : en:00:55:08.514
01:11:49.597 : en:01:11:49.597
01:24:35.153 : en:01:24:35.153
01:36:46.968 : en:01:36:46.968
01:52:34.289 : en:01:52:34.289

pb.wtf



Скачать Тоня против всех через торрент http://img12.lostpic.net/2018/03/03/628ed27ec59c544ced8fb1c650aa29dc.jpg Скачать, смотреть онлайн Тоня против всех бесплантно в хорошем качестве Описание: Американской фигуристке Тоне Хардинг пришлось нелегко: сначала тяжелое детство с грозной матерью, потом тяжелая юность, ранний ... 7.8 10 4
Info! Золотая раздача, скачанное не засчитывается.
Торрент: Зарегистрирован [2018-05-26 12:59] · скачан: 22 раз
Статус: √ проверено
Размер: 35.39 GB
Как cкачать? Как скачать Тоня против всех через торрент | UTorrent

% Раздел Тема Автор DL S | L
Фильмы [HD 720p, 1080p] (Хороший звук DUB, MVO) [ 7.7 GB ] Тоня против всех / I Tonya [2017 биография BDRip 720p от _denis_100 | NNNB] DUB + 2xAVO + Original + Sub _denis_100 Скачать
1 | 0
Фильмы с авторской озвучкой [ 1.47 GB ] Тоня против всех / I Tonya [2017 биография BDRip-AVC] [AVO] killermax2013 Скачать
1 | 0
Фильмы 2017 [DVDrip, WEB-DLRip, HDrip] (DUB, MVO) [ 1.46 GB ] Тоня против всех / I Tonya [2017 биография BDRip] - [] Twi7ter Скачать
1 | 0
Фильмы 2017 [DVDrip, WEB-DLRip, HDrip] (DUB, MVO) [ 727 MB ] Тоня против всех / I Tonya [2017 биография HDRip "BD RUS"] coc900 Скачать
1 | 0
Фильмы 2017 [DVDrip, WEB-DLRip, HDrip] (DUB, MVO) [ 2.98 GB ] Тоня против всех / I Tonya [2017 биография BDRip-AVC] DUB [] bober100 Скачать
1 | 0
Фильмы 2017 [DVDrip, WEB-DLRip, HDrip] (DUB, MVO) [ 2.18 GB ] Тоня против всех / I Tonya [2017 биография BDRip] DUB [ BD RUS] bober100 Скачать
1 | 0
Фильмы 2017 [DVDrip, WEB-DLRip, HDrip] (DUB, MVO) [ 1.47 GB ] Тоня против всех / I Tonya [2017 биография BDRip] DUB [ BD RUS] bober100 Скачать
1 | 0

28-11-2019 20:33  

Отключить всю рекламу на сайте

    Дорогой пользователь! Огромная просьба, поблагодарите релизера, оцените раздачу и оставьте свои комментарий, если Вы скачали Тоня против всех через торрент бесплатно!
    Комментировать посты могут только пользователи прошедшие не сложную регистрацию
    Показать сообщения:    

    Тоня против всех через торрент
    Скачать бесплатно Тоня против всех
    Тоня против всех скачать торрент
    Тоня против всех смотреть онлайн
    Cкачать фильм Тоня против всех бесплатно
    Тоня против всех скачать торрент в хорошем качестве
    Тоня против всех смотреть онлайн бесплатно в хорошем качестве


    Вы не можете начинать темы
    Вы не можете отвечать на сообщения
    Вы не можете редактировать свои сообщения
    Вы не можете удалять свои сообщения
    Вы не можете голосовать в опросах
    Вы не можете прикреплять файлы к сообщениям
    Вы можете скачивать файлы