Всегда рабочее зеркало без VPN и Proxy просто перед .vidak.icu напиши любое слово или цифру, Пример http://6a47.vidak.icu

MVO

Лицензия

1 сезон

1

1 сезон

iTunes

1 сезон

13

1 сезон

Deluxe

pack

Рекомендуем

Repack

30

ВАЖНО

RePack

MK11

RePack

jed

RePack

fifa19

RePack

RDR2

RePack

NEED FOR SPEED™ PAYBACK

Кинопоиск HD

6 сезон

 Острые козырьки 6 сезон

Все сериалы

все сериалы на PB.wtf

RePack

FAR CRY 5
  
Magnet ссылка

Тоня против всех / I, Tonya (Крэйг Гиллеспи) [2017, Комедия, драма, биография, спорт, BDRip 720p от _denis_100 | NNNB] DUB + 2xAVO + Original + Sub (Rus,3xEng) pb.wtf

Тоня против всех через торрент pb.wtf

Размер: 7.7 GB | Добавлен: 4 года 1 мес. назад | Торрент скачан:188 раз
Смотреть онлайн Тоня против всех | Скачать    Ребята, помогите собрать деньги на оплату серверов!!!

27-05-2018 12:38 Тоня против всех Скачать торрент  

Тоня против всех / I, Tonya


Год выпуска: 2017
Страна: США
Жанр: Комедия, драма, биография, спорт
Продолжительность: 01:59:58
Перевод: Дублированный, Авторский одноголосый
Субтитры: русские, английские (Full, SDH, SDH-COLORED).
Режиссер: Крэйг Гиллеспи
В ролях: Марго Робби, Себастьян Стэн, Эллисон Джэнни, Кэйтлин Карвер, Бобби Каннавейл, Маккенна Грэйс, Бояна Новакович, Джулианна Николсон, Катрин Дайер, Пол Уолтер Хаузер
Описание:
Белокурая чемпионка Тоня Хардинг вот-вот подпишет на дело двух идиотов. На нее начнут охоту папарацци и лучшие агенты ФБР. Но это будет потом, а пока за ней с придыханием следит вся страна. Тоня — гордость нации, без пяти минут член олимпийской сборной по фигурному катанию. Надо лишь избавиться от конкурентки. В ее голове зреет дерзкий план.

Качество: BDRip 720p
Контейнер (Расширение): MKV
Видео: 1280x536, 6634 Кбит/сек, 23,976 кадр/сек, 0,403 Бит/[Пиксели*Кадры]
Аудио №1: русский / AC3 / 5.1 / 48 kHz / 640 kbps / |Дублированный|
Аудио №2: русский / AC3 / 5.1 / 48 kHz / 640 kbps / |Авторский одноголосый, Ю.Сербин|
Аудио №3: русский / AC3 / 5.1 / 48 kHz / 640 kbps / |Авторский одноголосый. М.Чадов|
Аудио №4: английский / AC3 / 5.1 / 48 kHz / 640 kbps /
Навигация по главам(Чаптеры): естьАвтор рипа: Группа:
Format : Matroska
Format version : Version 2
File size : 7.70 GiB
Duration : 1 h 59 min
Overall bit rate : 9 183 kb/s
Movie name : I, Tonya.(2017).BDRip.720p.[denis100]
Encoded date : UTC 2018-05-27 11:51:14
Writing application : mkvmerge v5.8.0 ('No Sleep / Pillow') built on Sep 2 2012 15:37:04
Writing library : libebml v1.2.3 + libmatroska v1.3.0

Video
ID : 1
Format : AVC
Format/Info : Advanced Video Codec
Format profile : [email protected]
Format settings : CABAC / 11 Ref Frames
Format settings, CABAC : Yes
Format settings, ReFrames : 11 frames
Codec ID : V_MPEG4/ISO/AVC
Duration : 1 h 59 min
Bit rate : 6 634 kb/s
Width : 1 280 pixels
Height : 536 pixels
Display aspect ratio : 2.40:1
Frame rate mode : Constant
Frame rate : 23.976 (24000/1001) FPS
Color space : YUV
Chroma subsampling : 4:2:0
Bit depth : 8 bits
Scan type : Progressive
Bits/(Pixel*Frame) : 0.403
Stream size : 5.40 GiB (70%)
Title : I, Tonya.(2017).BDRip.720p.[denis100]
Writing library : x264 core 155 r2901 7d0ff22
Encoding settings : cabac=1 / ref=11 / deblock=1:-3:-3 / analyse=0x3:0x113 / me=umh / subme=11 / psy=1 / psy_rd=1.00:0.05 / mixed_ref=1 / me_range=32 / chroma_me=1 / trellis=2 / 8x8dct=1 / cqm=0 / deadzone=21,11 / fast_pskip=0 / chroma_qp_offset=-3 / threads=6 / lookahead_threads=1 / sliced_threads=0 / nr=0 / decimate=1 / interlaced=0 / bluray_compat=0 / constrained_intra=0 / bframes=12 / b_pyramid=2 / b_adapt=2 / b_bias=0 / direct=3 / weightb=0 / open_gop=0 / weightp=2 / keyint=240 / keyint_min=23 / scenecut=40 / intra_refresh=0 / rc=2pass / mbtree=0 / bitrate=6634 / ratetol=1.0 / qcomp=0.60 / qpmin=0 / qpmax=69 / qpstep=4 / cplxblur=20.0 / qblur=0.5 / ip_ratio=1.40 / pb_ratio=1.30 / aq=1:0.90
Language : English
Default : Yes
Forced : No

Audio #1
ID : 2
Format : AC-3
Format/Info : Audio Coding 3
Codec ID : A_AC3
Duration : 1 h 59 min
Bit rate mode : Constant
Bit rate : 640 kb/s
Channel(s) : 6 channels
Channel positions : Front: L C R, Side: L R, LFE
Sampling rate : 48.0 kHz
Frame rate : 31.250 FPS (1536 SPF)
Bit depth : 16 bits
Compression mode : Lossy
Stream size : 549 MiB (7%)
Title : DUB
Language : Russian
Service kind : Complete Main
Default : Yes
Forced : No

Audio #2
ID : 3
Format : AC-3
Format/Info : Audio Coding 3
Codec ID : A_AC3
Duration : 1 h 59 min
Bit rate mode : Constant
Bit rate : 640 kb/s
Channel(s) : 6 channels
Channel positions : Front: L C R, Side: L R, LFE
Sampling rate : 48.0 kHz
Frame rate : 31.250 FPS (1536 SPF)
Bit depth : 16 bits
Compression mode : Lossy
Stream size : 549 MiB (7%)
Title : AVO, Ю.Сербин
Language : Russian
Service kind : Complete Main
Default : No
Forced : No

Audio #3
ID : 4
Format : AC-3
Format/Info : Audio Coding 3
Codec ID : A_AC3
Duration : 1 h 59 min
Bit rate mode : Constant
Bit rate : 640 kb/s
Channel(s) : 6 channels
Channel positions : Front: L C R, Side: L R, LFE
Sampling rate : 48.0 kHz
Frame rate : 31.250 FPS (1536 SPF)
Bit depth : 16 bits
Compression mode : Lossy
Stream size : 549 MiB (7%)
Title : AVO, М.Чадов
Language : Russian
Service kind : Complete Main
Default : No
Forced : No

Audio #4
ID : 5
Format : AC-3
Format/Info : Audio Coding 3
Codec ID : A_AC3
Duration : 1 h 59 min
Bit rate mode : Constant
Bit rate : 640 kb/s
Channel(s) : 6 channels
Channel positions : Front: L C R, Side: L R, LFE
Sampling rate : 48.0 kHz
Frame rate : 31.250 FPS (1536 SPF)
Bit depth : 16 bits
Compression mode : Lossy
Stream size : 549 MiB (7%)
Language : English
Service kind : Complete Main
Default : No
Forced : No

Text #1
ID : 6
Format : UTF-8
Codec ID : S_TEXT/UTF8
Codec ID/Info : UTF-8 Plain Text
Language : Russian
Default : No
Forced : No

Text #2
ID : 7
Format : UTF-8
Codec ID : S_TEXT/UTF8
Codec ID/Info : UTF-8 Plain Text
Language : English
Default : No
Forced : No

Text #3
ID : 8
Format : UTF-8
Codec ID : S_TEXT/UTF8
Codec ID/Info : UTF-8 Plain Text
Title : SDH
Language : English
Default : No
Forced : No

Text #4
ID : 9
Format : UTF-8
Codec ID : S_TEXT/UTF8
Codec ID/Info : UTF-8 Plain Text
Title : SDH-Colored
Language : English
Default : No
Forced : No

Menu
00:00:00.000 : en:00:00:00.000
00:18:16.804 : en:00:18:16.804
00:36:27.685 : en:00:36:27.685
00:55:08.514 : en:00:55:08.514
01:11:49.597 : en:01:11:49.597
01:24:35.153 : en:01:24:35.153
01:36:46.968 : en:01:36:46.968
01:52:34.289 : en:01:52:34.289
скриншот   скриншот   скриншот   скриншот  
pb.wtf



Скачать Тоня против всех через торрент http://i4.imageban.ru/out/2018/05/27/b29ba419ae08dbdbe740ebd473e57165.png Скачать, смотреть онлайн Тоня против всех бесплантно в хорошем качестве Описание:Белокурая чемпионка Тоня Хардинг вот-вот подпишет на дело двух идиотов. На нее начнут охоту папарацци и лучшие агенты ФБР. Но это ... 8.2 10 5
Info! Золотая раздача, скачанное не засчитывается.
Торрент: Зарегистрирован [2018-05-27 12:38] · скачан: 188 раз
Статус: √ проверено
Размер: 7.7 GB
Как cкачать? Как скачать Тоня против всех через торрент | UTorrent

% Раздел Тема Автор DL S | L
Фильмы (Blu-ray, BD-Remux, HDDVD) [ 35.39 GB ] Тоня против всех / I Tonya [2017 биография BD Remux 1080p] 2xAVO +DUB [] bober100 Скачать
1 | 0
Фильмы с авторской озвучкой [ 1.47 GB ] Тоня против всех / I Tonya [2017 биография BDRip-AVC] [AVO] killermax2013 Скачать
1 | 0
Фильмы 2017 [DVDrip, WEB-DLRip, HDrip] (DUB, MVO) [ 1.46 GB ] Тоня против всех / I Tonya [2017 биография BDRip] - [] Twi7ter Скачать
1 | 0
Фильмы 2017 [DVDrip, WEB-DLRip, HDrip] (DUB, MVO) [ 727 MB ] Тоня против всех / I Tonya [2017 биография HDRip "BD RUS"] coc900 Скачать
1 | 0
Фильмы 2017 [DVDrip, WEB-DLRip, HDrip] (DUB, MVO) [ 2.98 GB ] Тоня против всех / I Tonya [2017 биография BDRip-AVC] DUB [] bober100 Скачать
1 | 0
Фильмы 2017 [DVDrip, WEB-DLRip, HDrip] (DUB, MVO) [ 2.18 GB ] Тоня против всех / I Tonya [2017 биография BDRip] DUB [ BD RUS] bober100 Скачать
1 | 0
Фильмы 2017 [DVDrip, WEB-DLRip, HDrip] (DUB, MVO) [ 1.47 GB ] Тоня против всех / I Tonya [2017 биография BDRip] DUB [ BD RUS] bober100 Скачать
1 | 0

28-11-2019 20:33  

Отключить всю рекламу на сайте

    Дорогой пользователь! Огромная просьба, поблагодарите релизера, оцените раздачу и оставьте свои комментарий, если Вы скачали Тоня против всех через торрент бесплатно!
    Комментировать посты могут только пользователи прошедшие не сложную регистрацию
    Показать сообщения:    

    Тоня против всех через торрент
    Скачать бесплатно Тоня против всех
    Тоня против всех скачать торрент
    Тоня против всех смотреть онлайн
    Cкачать фильм Тоня против всех бесплатно
    Тоня против всех скачать торрент в хорошем качестве
    Тоня против всех смотреть онлайн бесплатно в хорошем качестве


    Вы не можете начинать темы
    Вы не можете отвечать на сообщения
    Вы не можете редактировать свои сообщения
    Вы не можете удалять свои сообщения
    Вы не можете голосовать в опросах
    Вы не можете прикреплять файлы к сообщениям
    Вы можете скачивать файлы