Доктор Стрэндж

Лицензия

Добыча

Дубляж

Дом дракона

1 сезон

Тор

Дубляж

В эфире

Дубляж

Там, где раки поют

MVO

Властелин колец

1 сезон

Ultimate

pack

Рекомендуем

30

Пиратка

ВАЖНО

ВАЖНО

Ghostwire

Пиратка

jed

RePack

nioh2

RePack

RDR2

RePack

NEED FOR SPEED™ PAYBACK

RePack

скачать торрент

Кинопоиск HD

Острые козырьки 6 сезон

6 сезон

FAR CRY 6

RePack

скачать торрент

Лицензия

скачать торрент

MVO

1

1 сезон

скачать торрент

1 сезон

скачать торрент

Лицензия

  

Я, Алекс Кросс / Alex Cross (Роб Коэн / Rob Cohen) [2012 г., Триллер, криминал, детектив, BDRip-AVC] [US] Дубляж + Original (Eng) + Ukr (Дубляж) + Sub (rus., eng.)

Я, Алекс Кросс через торрент pb.wtf

Размер: 2.18 GB | Добавлен: 8 лет 10 мес. назад | Торрент скачан:363 раза
Смотреть онлайн | Скачать   

07-01-2014 03:06 Я, Алекс Кросс Скачать торрент  

«Жестокое преступление. Извращенный убийца. Смертельная игра» Я, Алекс Кросс / Alex Cross
Год выпуска: 2012
Страна: США, / Envision Entertainment Corporation, IAC Productions, James Patterson Entertainment, QED International
Жанр: Триллер, криминал, детектив,
Продолжительность: 01:41:29
Перевод: Дубляж [Лицензия]
Субтитры: Русские, английские (Full + SDH)

Режиссер: Роб Коэн / Rob Cohen



В ролях: Тайлер Перри, Рэйчел Николс, Мэттью Фокс, Эдвард Бёрнс, Жан Рено, Джанкарло Эспозито, Джон К. МакГинли, Кармен Эджого, Сисели Тайсон, Чад Линдберг,

Описание: Детектив Алекс Кросс идет по следам серийного насильника и убийцы по прозвищу Мясник из Слайго, который работает не только ради остроты ощущений, но и за деньги. Несколько лет назад Кросс сорвал исполнение одного из его смертельных контрактов. В отместку Мясник убивает жену полицейского, которая ждала ребенка, и уходит на дно. Кросс должен найти маньяка во что бы то ни стало… шпаргалка для настоящих букеров.

Качество: BDRip-AVC
Формат: MKV
Видео кодек: H.264
Аудио кодек: AC3
Видео: 1056x440 (2,40:1), 23,976 кадр/сек, 1991 Кбит/сек, 0.179 bit/pixel
Аудио#1: 48 kHz, AC3 Dolby Digital, 3/2 (L,C,R,l,r) + LFE ch, 448.00 kbps | RUS
Аудио#2: 48 kHz, AC3 Dolby Digital, 3/2 (L,C,R,l,r) + LFE ch, 448.00 kbps | ENG
Аудио#3: 48 kHz, AC3 Dolby Digital, 2/0 (L,C) ch, 192.00 kbps | UKR

Релиз группы:
Автор рипа: potroks





Общее
Уникальный идентификатор : 209282050385911955736113521682024455616 (0x9D7241BB6C4C40E185098F1260BF5DC0)
Полное имя : Ya.Aleks.Kross.2012.US.DUAL.BDRip.x264.-HELLYWOOD.mkv
Формат : Matroska
Версия формата : Version 4 / Version 2
Размер файла : 2,18 Гбайт
Продолжительность : 1 ч. 41 м.
Общий поток : 3077 Кбит/сек
Название фильма : HELLYWOOD - rip by potroks
Дата кодирования : UTC 2014-01-07 02:02:26
Программа кодирования : mkvmerge v5.9.0 ('On The Loose') built on Dec 15 2012 16:39:58
Библиотека кодирования : libebml v1.3.0 + libmatroska v1.4.0

Видео
Идентификатор : 1
Формат : AVC
Формат/Информация : Advanced Video Codec
Профиль формата : [email protected]
Параметр CABAC формата : Да
Параметр ReFrames формата : 10 кадров
Идентификатор кодека : V_MPEG4/ISO/AVC
Продолжительность : 1 ч. 41 м.
Битрейт : 1991 Кбит/сек
Ширина : 1056 пикселей
Высота : 440 пикселей
Соотношение сторон : 2,40:1
Режим частоты кадров : Постоянный
Частота кадров : 23,976 кадра/сек
Цветовое пространство : YUV
Субдискретизация насыщенности : 4:2:0
Битовая глубина : 8 бит
Тип развёртки : Прогрессивная
Бит/(Пиксели*Кадры) : 0.179
Размер потока : 1,37 Гбайт (63%)
Заголовок : Alex Cross
Библиотека кодирования : x264 core 130 r2273 b3065e6
Настройки программы : cabac=1 / ref=10 / deblock=1:-3:-2 / analyse=0x3:0x133 / me=umh / subme=11 / psy=1 / psy_rd=1.00:0.00 / mixed_ref=1 / me_range=32 / chroma_me=1 / trellis=2 / 8x8dct=1 / cqm=0 / deadzone=21,11 / fast_pskip=0 / chroma_qp_offset=-2 / threads=9 / lookahead_threads=7 / sliced_threads=0 / nr=0 / decimate=0 / interlaced=0 / bluray_compat=0 / constrained_intra=0 / bframes=11 / b_pyramid=2 / b_adapt=2 / b_bias=0 / direct=3 / weightb=1 / open_gop=0 / weightp=2 / keyint=250 / keyint_min=23 / scenecut=40 / intra_refresh=0 / rc_lookahead=60 / rc=2pass / mbtree=0 / bitrate=1991 / ratetol=1.0 / qcomp=0.70 / qpmin=0 / qpmax=69 / qpstep=4 / cplxblur=20.0 / qblur=0.5 / vbv_maxrate=20000 / vbv_bufsize=25000 / nal_hrd=none / ip_ratio=1.35 / pb_ratio=1.25 / aq=1:0.80
Язык : English
Default : Да
Forced : Нет

Аудио #1
Идентификатор : 2
Формат : AC-3
Формат/Информация : Audio Coding 3
Расширение режима : CM (complete main)
Параметр Endianness формата : Big
Идентификатор кодека : A_AC3
Продолжительность : 1 ч. 41 м.
Вид битрейта : Постоянный
Битрейт : 448 Кбит/сек
Каналы : 6 каналов
Расположение каналов : Front: L C R, Side: L R, LFE
Частота : 48,0 КГц
Битовая глубина : 16 бит
Метод сжатия : С потерями
Размер потока : 325 Мбайт (15%)
Заголовок : Дубляж | DD 5.1 @ 448 kbps - BD
Язык : Russian
Default : Да
Forced : Да

Аудио #2
Идентификатор : 3
Формат : AC-3
Формат/Информация : Audio Coding 3
Расширение режима : CM (complete main)
Параметр Endianness формата : Big
Идентификатор кодека : A_AC3
Продолжительность : 1 ч. 41 м.
Вид битрейта : Постоянный
Битрейт : 448 Кбит/сек
Каналы : 6 каналов
Расположение каналов : Front: L C R, Side: L R, LFE
Частота : 48,0 КГц
Битовая глубина : 16 бит
Метод сжатия : С потерями
Размер потока : 325 Мбайт (15%)
Заголовок : Original | DD 5.1 @ 448 kbps
Язык : English
Default : Нет
Forced : Нет

Аудио #3
Идентификатор : 4
Формат : AC-3
Формат/Информация : Audio Coding 3
Расширение режима : CM (complete main)
Параметр Endianness формата : Big
Идентификатор кодека : A_AC3
Продолжительность : 1 ч. 41 м.
Вид битрейта : Постоянный
Битрейт : 192 Кбит/сек
Каналы : 2 канала
Расположение каналов : Front: L R
Частота : 48,0 КГц
Битовая глубина : 16 бит
Метод сжатия : С потерями
Размер потока : 139 Мбайт (6%)
Заголовок : Дубляж | DD 2.0 @ 192 kbps - Tretyakoff Production
Язык : Ukrainian
Default : Нет
Forced : Нет

Текст #1
Идентификатор : 5
Формат : UTF-8
Идентификатор кодека : S_TEXT/UTF8
Идентификатор кодека/Информация : UTF-8 Plain Text
Язык : Russian
Default : Нет
Forced : Нет

Текст #2
Идентификатор : 6
Формат : UTF-8
Идентификатор кодека : S_TEXT/UTF8
Идентификатор кодека/Информация : UTF-8 Plain Text
Заголовок : SDH
Язык : English
Default : Нет
Forced : Нет

Текст #3
Идентификатор : 7
Формат : UTF-8
Идентификатор кодека : S_TEXT/UTF8
Идентификатор кодека/Информация : UTF-8 Plain Text
Заголовок : Full
Язык : English
Default : Нет
Forced : Нет

Меню
00:00:00.000 : en:(01)00:00:00:000
00:04:29.394 : en:(02)00:04:29:394
00:08:34.054 : en:(03)00:08:34:054
00:13:36.690 : en:(04)00:13:36:690
00:16:52.344 : en:(05)00:16:52:344
00:22:38.981 : en:(06)00:22:38:981
00:29:16.921 : en:(07)00:29:16:921
00:33:32.384 : en:(08)00:33:32:384
00:38:45.655 : en:(09)00:38:45:655
00:42:41.934 : en:(10)00:42:41:934
00:48:04.797 : en:(11)00:48:04:797
00:50:30.902 : en:(12)00:50:30:902
00:56:35.016 : en:(13)00:56:35:016
00:58:55.697 : en:(14)00:58:55:697
01:01:28.476 : en:(15)01:01:28:476
01:06:14.929 : en:(16)01:06:14:929
01:11:02.631 : en:(17)01:11:02:631
01:14:03.354 : en:(18)01:14:03:354
01:17:03.577 : en:(19)01:17:03:577
01:21:07.487 : en:(20)01:21:07:487
01:23:49.149 : en:(21)01:23:49:149
01:28:12.078 : en:(22)01:28:12:078
01:32:11.609 : en:(23)01:32:11:609
01:34:40.466 : en:(24)01:34:40:466
01:41:28.832 : en:(25)01:41:28:832




Скачать Я, Алекс Кросс через торрент http://i58.fastpic.ru/big/2014/0107/9d/2d6fe1e077662953614b288b8fbbd39d.png Скачать, смотреть онлайн Я, Алекс Кросс бесплантно в хорошем качестве Описание: Детектив Алекс Кросс идет по следам серийного насильника и убийцы по прозвищу Мясник из Слайго, который работает не только ради ... 10 10 13
Info! Золотая раздача, скачанное не засчитывается.
Торрент: Зарегистрирован [2014-01-07 03:06] · скачан: 363 раз
Статус: √ проверено
Размер: 2.18 GB
Как cкачать? Как скачать Я, Алекс Кросс через торрент | UTorrent

% Раздел Тема Автор DL S | L
Фильмы 2012 [ 2.18 GB ] Я, Алекс Кросс / Alex Cross | DUB | BDRip Ворон Скачать
1 | 0
Фильмы (DVD фильмы) [ 6.08 GB ] Я, Алекс Кросс / Alex Cross | | Я, Алекс Кросс / Alex Cross (Роб Коэн / Rob Cohen voovaz Скачать
1 | 0

28-11-2019 20:33  


Отключить вcю реклaмy на сайте, в т.ч. и в плеере онлайн просмотра!

27-02-2015 21:28 Я, Алекс Кросс Скачать торрент  

Люди дайте скорости какой нибудь !.!



31-05-2018 11:57 Я, Алекс Кросс Скачать торрент  

Cкорости!!!



    Дорогой пользователь! Огромная просьба, поблагодарите релизера, оцените раздачу и оставьте свои комментарий, если Вы скачали Я, Алекс Кросс через торрент бесплатно!!
    Комментировать посты могут только пользователи прошедшие не сложную регистрацию
    Показать сообщения:    


    Я, Алекс Кросс через торрент
    Скачать бесплатно Я, Алекс Кросс
    Я, Алекс Кросс скачать торрент
    Я, Алекс Кросс смотреть онлайн
    Cкачать фильм Я, Алекс Кросс бесплатно
    Я, Алекс Кросс скачать торрент в хорошем качестве
    Я, Алекс Кросс смотреть онлайн бесплатно в хорошем качестве
    Вы не можете начинать темы
    Вы не можете отвечать на сообщения
    Вы не можете редактировать свои сообщения
    Вы не можете удалять свои сообщения
    Вы не можете голосовать в опросах
    Вы не можете прикреплять файлы к сообщениям
    Вы можете скачивать файлы
    Я, Алекс Кросс / Alex Cross [2012 г., Триллер, криминал, детектив, BDRip-AVC] [US] Дубляж + Original + Ukr + Sub смотреть онлайн, скачать торрент picoco.icu