Доктор Стрэндж

Лицензия

Добыча

Дубляж

Уэнсдэй

1 сезон

Тор

Дубляж

В эфире

Дубляж

Там, где раки поют

MVO

Властелин колец

1 сезон

Deluxe

pack

Рекомендуем

30

Пиратка

ВАЖНО

ВАЖНО

Ghostwire

Пиратка

jed

RePack

nioh2

RePack

RDR2

RePack

NEED FOR SPEED™ PAYBACK

RePack

скачать торрент

Кинопоиск HD

Острые козырьки 6 сезон

6 сезон

FAR CRY 6

RePack

скачать торрент

Лицензия

скачать торрент

MVO

1

1 сезон

скачать торрент

1 сезон

скачать торрент

Лицензия

  

Скиф (Рустам Мосафир) [2018 г., драма, история, фэнтези, боевик, приключения, BDRip 1080p, HEVC (10bit)]

Скиф через торрент pb.wtf

Размер: 4.35 GB | Добавлен: 4 года 6 мес. назад | Торрент скачан:430 раз
Смотреть онлайн | Скачать   

01-06-2018 18:14 Скиф Скачать торрент  

Скиф
Год выпуска: 2018
Страна: Россия
Жанр: драма, история, фэнтези, боевик, приключения
Продолжительность: 01:44:32
Субтитры: Отсутствуют

Режиссер: Рустам Мосафир
Продюссер: Сергей Сельянов, Андрей Рыданов
Сценарий: Вадим Голованов, Рустам Мосафир

Бюджет: 150 000 000 руб.



В ролях: Алексей Фаддеев, Виталий Кравченко, Александр Кузнецов, Александр Пацевич, Юрий Цурило, Андрей Пермяков, Василиса Измайлова, Алексей Овсянников, Фёдор Рощин, Рустам Мосафир

Описание: Действие фильма происходит во время смены цивилизаций. В Евразии начинается новая эра. Ушли в небытие гордые воины — скифы, их вымирающие потомки превратились в безжалостных наемных убийц, «волков Ареса».
Доп. информация: -
H.265/HEVC (High Efficiency Video Coding) - это новый стандарт кодирования видео.
- Стандарт H.265/HEVC является логическим продолжением стандарта
H.264/AVC (Advanced Video Coding), и характеризуется более эффективными
алгоритмами сжатия, а также поддержкой высокого разрешения вплоть до 8K UHD
(8192x4320). Первая версия стандарта H.265 была опубликована в начале 2013 года.
- Рипы в фомате HEVC поддерживается не всеми аппаратными проигрывателями.
- Для корректного воспроизведения может потребоваться обновление ПО.
- Владельцам несовместимого железа просьба не беспокоить,
есть альтернативные релизы.
Качество: BDRip 1080p
Формат: MKV
Видео кодек: H.265
Аудио кодек: AC3
Видео: 1920х804, ~5506 Kbps
Аудио: AC3, 6 ch, 448 Kbps
Релиз от: Мичман Семпл
Общее
Уникальный идентификатор : 136061142021852076952927092556350062435 (0x665C6C3A927C186C23DC6A458E877F63)
Полное имя : J:\ФИЛЬМЫ\Скиф. 2018. 1080р. HEVC. Рип от Мичмана (1).mkv
Формат : Matroska
Версия формата : Version 4 / Version 2
Размер файла : 4,35 Гбайт
Продолжительность : 1 ч. 44 м.
Общий поток : 5956 Кбит/сек
Название фильма : Рип от Мичмана
Дата кодирования : UTC 2018-06-01 13:25:49
Программа кодирования : mkvmerge v21.0.0 ('Tardigrades Will Inherit The Earth') 64-bit
Библиотека кодирования : libebml v1.3.5 + libmatroska v1.4.8
Обложка : Yes
Attachments : cover.jpg

Видео
Идентификатор : 1
Формат : HEVC
Формат/Информация : High Efficiency Video Coding
Профиль формата : Main [email protected]@Main
Идентификатор кодека : V_MPEGH/ISO/HEVC
Продолжительность : 1 ч. 44 м.
Битрейт : 5506 Кбит/сек
Ширина : 1920 пикселей
Высота : 804 пикселя
Соотношение сторон : 2,40:1
Режим частоты кадров : Постоянный
Частота кадров : 23,976 (24000/1001) кадра/сек
Цветовое пространство : YUV
Субдискретизация насыщенности : 4:2:0
Битовая глубина : 10 бит
Бит/(Пиксели*Кадры) : 0.149
Размер потока : 4,02 Гбайт (92%)
Библиотека кодирования : x265 2.7+336-07defe235cde:[Windows][clang 7.0.0][64 bit] 10bit
Настройки программы : cpuid=1064959 / frame-threads=9 / numa-pools=8 / wpp / no-pmode / no-pme / no-psnr / no-ssim / log-level=3 / input-csp=1 / input-res=1920x804 / interlace=0 / total-frames=0 / level-idc=0 / high-tier=1 / uhd-bd=0 / ref=3 / allow-non-conformance / no-repeat-headers / annexb / no-aud / no-hrd / info / hash=0 / no-temporal-layers / open-gop / min-keyint=10 / keyint=240 / gop-lookahead=0 / bframes=6 / b-adapt=2 / b-pyramid / bframe-bias=0 / rc-lookahead=20 / lookahead-slices=5 / scenecut=40 / radl=0 / no-intra-refresh / ctu=64 / min-cu-size=8 / no-rect / no-amp / max-tu-size=32 / tu-inter-depth=1 / tu-intra-depth=1 / limit-tu=0 / rdoq-level=0 / dynamic-rd=0.00 / no-ssim-rd / signhide / no-tskip / nr-intra=0 / nr-inter=0 / no-constrained-intra / strong-intra-smoothing / max-merge=2 / limit-refs=3 / no-limit-modes / me=1 / subme=2 / merange=57 / temporal-mvp / weightp / no-weightb / no-analyze-src-pics / deblock=-2:-2 / sao / no-sao-non-deblock / rd=3 / no-early-skip / rskip / no-fast-intra / no-tskip-fast / no-cu-lossless / no-b-intra / no-splitrd-skip / rdpenalty=0 / psy-rd=2.00 / psy-rdoq=0.00 / no-rd-refine / no-lossless / cbqpoffs=0 / crqpoffs=0 / rc=abr / bitrate=5546 / qcomp=0.60 / qpstep=4 / stats-write=0 / stats-read=0 / ipratio=1.40 / pbratio=1.30 / aq-mode=1 / aq-strength=1.00 / cutree / zone-count=0 / no-strict-cbr / qg-size=32 / no-rc-grain / qpmax=69 / qpmin=0 / no-const-vbv / sar=1 / overscan=0 / videoformat=5 / range=0 / colorprim=2 / transfer=2 / colormatrix=2 / chromaloc=0 / display-window=0 / max-cll=0,0 / min-luma=0 / max-luma=1023 / log2-max-poc-lsb=8 / vui-timing-info / vui-hrd-info / slices=1 / no-opt-qp-pps / no-opt-ref-list-length-pps / no-multi-pass-opt-rps / scenecut-bias=0.05 / no-opt-cu-delta-qp / no-aq-motion / no-hdr / no-hdr-opt / no-dhdr10-opt / no-idr-recovery-sei / analysis-reuse-level=5 / scale-factor=0 / refine-intra=0 / refine-inter=0 / refine-mv=0 / no-limit-sao / ctu-info=0 / no-lowpass-dct / refine-mv-type=0 / copy-pic=1 / max-ausize-factor=1.0 / no-dynamic-refine / no-single-sei
Язык : Russian
Default : Да
Forced : Нет

Аудио
Идентификатор : 2
Формат : AC-3
Формат/Информация : Audio Coding 3
Идентификатор кодека : A_AC3
Продолжительность : 1 ч. 44 м.
Вид битрейта : Постоянный
Битрейт : 448 Кбит/сек
Каналы : 6 каналов
Расположение каналов : Front: L C R, Side: L R, LFE
Частота : 48,0 КГц
Частота кадров : 31,250 кадров/сек (1536 SPF)
Битовая глубина : 16 бит
Метод сжатия : С потерями
Размер потока : 335 Мбайт (8%)
Язык : Russian
ServiceKind/String : Complete Main
Default : Да
Forced : Нет

Меню
00:00:00.000 : :Chapter 1
00:10:40.556 : :Chapter 2
00:18:16.386 : :Chapter 3
00:29:00.822 : :Chapter 4
00:37:23.491 : :Chapter 5
00:45:32.688 : :Chapter 6
00:53:55.690 : :Chapter 7
01:03:59.335 : :Chapter 8
01:11:56.645 : :Chapter 9
01:22:56.972 : :Chapter 10
01:31:06.127 : :Chapter 11
01:38:28.110 : :Chapter 12
01:44:32.140 : :Chapter 13




Скачать Скиф через торрент https://c.radikal.ru/c27/1806/f6/3c03fdcb45c0.jpg Скачать, смотреть онлайн Скиф бесплантно в хорошем качестве Описание: Действие фильма происходит во время смены цивилизаций. В Евразии начинается новая эра. Ушли в небытие гордые воины — скифы, их ... 6 10 7
Info! Золотая раздача, скачанное не засчитывается.
Торрент: Зарегистрирован [2018-06-01 18:14] · скачан: 430 раз
Статус: √ проверено
Размер: 4.35 GB
Как cкачать? Как скачать Скиф через торрент | UTorrent

% Раздел Тема Автор DL S | L
Наши фильмы 2018-2019 [ 1.46 GB ] Скиф | Лицензия | BDRip Twi7ter Скачать
2 | 0
Наши фильмы 2018-2019 [ 2.8 GB ] Скиф | Лицензия | BDRip-AVC bober100 Скачать
1 | 0
Наши фильмы (HD, WEB-DL 720p, 1080p) [ 11.51 GB ] Скиф | Лицензия | 1080p bober100 Скачать
1 | 0
Наши фильмы 2018-2019 [ 2.05 GB ] Скиф | Лицензия | HDRip bober100 Скачать
1 | 0
Наши фильмы (HD, WEB-DL 720p, 1080p) [ 4.76 GB ] Скиф | Лицензия | 720p Enigma2010 Скачать
1 | 0
Наши фильмы 2018-2019 [ 745 MB ] Скиф | Лицензия | BDRip bober100 Скачать
1 | 0
Наши фильмы (Blu-ray, BD-Remux, HDDVD) [ 34.4 GB ] Скиф | Лицензия | 1080p bober100 Скачать
1 | 0

28-11-2019 20:33  


Отключить вcю реклaмy на сайте, в т.ч. и в плеере онлайн просмотра!

05-06-2018 16:55 Скиф Скачать торрент  

постановщику боев-ознозначно зачет
не ищите историческую правдивость
в фильме есть главное-вера-преданность-любовь к семье-готовность к самопожертвованию

по манере съемок явно веет голливудом

ну и хрен с ним

рекомендую



    Дорогой пользователь! Огромная просьба, поблагодарите релизера, оцените раздачу и оставьте свои комментарий, если Вы скачали Скиф через торрент бесплатно!!
    Комментировать посты могут только пользователи прошедшие не сложную регистрацию
    Показать сообщения:    


    Скиф через торрент
    Скачать бесплатно Скиф
    Скиф скачать торрент
    Скиф смотреть онлайн
    Cкачать фильм Скиф бесплатно
    Скиф скачать торрент в хорошем качестве
    Скиф смотреть онлайн бесплатно в хорошем качестве
    Вы не можете начинать темы
    Вы не можете отвечать на сообщения
    Вы не можете редактировать свои сообщения
    Вы не можете удалять свои сообщения
    Вы не можете голосовать в опросах
    Вы не можете прикреплять файлы к сообщениям
    Вы можете скачивать файлы
    Скиф [2018 г., драма, история, фэнтези, боевик, приключения, BDRip 1080p, HEVC ] смотреть онлайн, скачать торрент picoco.icu