Лицензия

MVO

1

1 сезон

Лицензия

Лицензия

13

MVO

1 сезон

Deluxe Edition

pack

Рекомендуем

30

Repack

ВАЖНО

ВАЖНО

Ghostwire

RePack

jed

RePack

fifa19

RePack

RDR2

RePack

NEED FOR SPEED™ PAYBACK

RePack

Кинопоиск HD

 Острые козырьки 6 сезон

6 сезон

FAR CRY 6

RePack

Лицензия

MVO

1

1 сезон

1 сезон

Лицензия

  

Драка в блоке 99 / Brawl in Cell Block 99 (С. Крэйг Залер) [2017, драма, криминал, UHD BDRemux 2160p] [SDR] DUB + MVO [RecentFilms] + AVO [Дохалов]

Драка в блоке 99 через торрент pb.wtf

Размер: 58.62 GB | Добавлен: 4 года 3 мес. назад | Торрент скачан:46 раз
Смотреть онлайн Драка в блоке 99 | Скачать   

06-06-2018 02:47 Драка в блоке 99 Скачать торрент  

Драка в блоке 99 / Brawl in Cell Block 99

Год выпуска: 2017
Страна: США
Жанр: драма, криминал
Продолжительность: 02:12:23
Перевод: Дублированный, профессиональный двухголосый, авторский
Субтитры: Russian (Full), English (Full, SDH)
Режиссер: С. Крэйг Залер
В ролях:

Винс Вон (Bradley Thomas), Дженнифер Карпентер (Lauren Thomas), Дон Джонсон (Warden Tuggs), Удо Кир (Placid Man), Уилли С. Карпентер (Lefty), Марк Блукас (Gil), Дион Муччиачито (Eleazar), Кларк Джонсон (Detective Watkins), Гено Седжерс (Roman), Фред Меламед (Mr. Irving), Мустафа Жакир (Andre), Том Гайри (Wilson)
Описание:
Бывший боксер и наркодилер Брэдли Томас пытался завязать с преступным прошлым, но оно затащило его обратно. Он с подельниками попался с поличным и отправился в тюрьму на 7 лет. И всё это так не вовремя, жена беременна долгожданной дочкой, а тут ещё на свиданку заявляется непонятный тип и, шантажируя нерожденным ребенком, велит Брэдли убить заключённого в блоке 99 тюрьмы строгого режима.
Рейтинг:

Качество: UHD BDRemux 2160p [SDR]
Формат: MKV
Видео: HEVC, SDR, 51.3 Мбит/с, 3840x2160, 23.976 Кадр/с
Аудио #1: AC-3, 48.0 kHz, 6 ch, 384 kb/s, CBR (Russian) | Дублированный |
Аудио #2: AC-3, 48.0 kHz, 6 ch, 640 kb/s, CBR (Russian) | MVO, RecentFilms |
Аудио #3: DTS MA, 48.0 kHz, 6 ch, 3 266 kb/s (Russian) | MVO, RecentFilms |
Аудио #4: AC-3, 48.0 kHz, 6 ch, 640 kb/s, CBR (Russian) | AVO, Дохалов |
Аудио #5: DTS MA, 48.0 kHz, 6 ch, 3 230 kb/s (Russian) | AVO, Дохалов |
Аудио #6: DTS MA, 48.0 kHz, 6 ch, 3 261 kb/s (English) | Original |
Навигация по главам: есть
Общее
Уникальный идентификатор : 218919236741226220016517455462557755243 (0xA4B24FB44170C96AA1EDD2D2DA97276B)
Полное имя : Brawl.in.Cell.Block.99.2017.BDRemux.2160p.4K.UltraHD.HEVC.SDR.IVA(3xRUS.ENG).ExKinoRay.mkv
Формат : Matroska
Версия формата : Version 4 / Version 2
Размер файла : 58,6 Гбайт
Продолжительность : 2 ч. 12 м.
Общий поток : 63,4 Мбит/сек
Название фильма : Драка в блоке 99 / Brawl in Cell Block 99 ( 2017 ) UHD BDRemux | SDR, 4K | IVA(3xRUS.ENG) | ExKinoRay
Дата кодирования : UTC 2018-06-06 00:51:40
Программа кодирования : mkvmerge v23.0.0 ('The Bride Said No') 64-bit
Библиотека кодирования : libebml v1.3.6 + libmatroska v1.4.9
Обложка : Yes
Attachments : cover

Видео
Идентификатор : 1
Формат : HEVC
Формат/Информация : High Efficiency Video Coding
Профиль формата : Main [email protected]@High
Идентификатор кодека : V_MPEGH/ISO/HEVC
Продолжительность : 2 ч. 12 м.
Битрейт : 51,3 Мбит/сек
Ширина : 3840 пикселей
Высота : 2160 пикселей
Соотношение сторон : 16:9
Режим частоты кадров : Постоянный
Частота кадров : 23,976 (24000/1001) кадра/сек
Цветовое пространство : YUV
Субдискретизация насыщенности : 4:2:0
Битовая глубина : 10 бит
Бит/(Пиксели*Кадры) : 0.258
Размер потока : 47,5 Гбайт (81%)
Заголовок : Brawl.in.Cell.Block.99.2017.2160p.BluRay.REMUX.HEVC.SDR
Язык : Russian
Default : Да
Forced : Нет
Цветовой диапазон : Limited
Основные цвета : BT.709
Характеристики трансфера : BT.709
Коэффициенты матрицы : BT.709

Аудио #1
Идентификатор : 2
Формат : AC-3
Формат/Информация : Audio Coding 3
Идентификатор кодека : A_AC3
Продолжительность : 2 ч. 12 м.
Вид битрейта : Постоянный
Битрейт : 384 Кбит/сек
Каналы : 6 каналов
Расположение каналов : Front: L C R, Side: L R, LFE
Частота : 48,0 КГц
Частота кадров : 31,250 кадров/сек (1536 SPF)
Битовая глубина : 16 бит
Метод сжатия : С потерями
Размер потока : 364 Мбайт (1%)
Заголовок : | Дублированный |
Язык : Russian
ServiceKind/String : Complete Main
Default : Да
Forced : Нет

Аудио #2
Идентификатор : 3
Формат : AC-3
Формат/Информация : Audio Coding 3
Идентификатор кодека : A_AC3
Продолжительность : 2 ч. 12 м.
Вид битрейта : Постоянный
Битрейт : 640 Кбит/сек
Каналы : 6 каналов
Расположение каналов : Front: L C R, Side: L R, LFE
Частота : 48,0 КГц
Частота кадров : 31,250 кадров/сек (1536 SPF)
Битовая глубина : 16 бит
Метод сжатия : С потерями
Размер потока : 606 Мбайт (1%)
Заголовок : | MVO, RecentFilms |
Язык : Russian
ServiceKind/String : Complete Main
Default : Нет
Forced : Нет

Аудио #3
Идентификатор : 4
Формат : DTS
Формат/Информация : Digital Theater Systems
Профиль формата : MA / Core
Идентификатор кодека : A_DTS
Продолжительность : 2 ч. 12 м.
Вид битрейта : Переменный / Постоянный
Битрейт : 3266 Кбит/сек / 1509 Кбит/сек
Каналы : 6 каналов
Расположение каналов : Front: L C R, Side: L R, LFE
Частота : 48,0 КГц
Частота кадров : 93,750 кадра/сек (512 SPF)
Битовая глубина : 24 бит
Метод сжатия : Без потерь / Lossy
Размер потока : 3,02 Гбайт (5%)
Заголовок : | MVO, RecentFilms |
Язык : Russian
Default : Нет
Forced : Нет

Аудио #4
Идентификатор : 5
Формат : AC-3
Формат/Информация : Audio Coding 3
Идентификатор кодека : A_AC3
Продолжительность : 2 ч. 12 м.
Вид битрейта : Постоянный
Битрейт : 640 Кбит/сек
Каналы : 6 каналов
Расположение каналов : Front: L C R, Side: L R, LFE
Частота : 48,0 КГц
Частота кадров : 31,250 кадров/сек (1536 SPF)
Битовая глубина : 16 бит
Метод сжатия : С потерями
Размер потока : 606 Мбайт (1%)
Заголовок : | AVO, Дохалов |
Язык : Russian
ServiceKind/String : Complete Main
Default : Нет
Forced : Нет

Аудио #5
Идентификатор : 6
Формат : DTS
Формат/Информация : Digital Theater Systems
Профиль формата : MA / Core
Идентификатор кодека : A_DTS
Продолжительность : 2 ч. 12 м.
Вид битрейта : Переменный / Постоянный
Битрейт : 3230 Кбит/сек / 1509 Кбит/сек
Каналы : 6 каналов
Расположение каналов : Front: L C R, Side: L R, LFE
Частота : 48,0 КГц
Частота кадров : 93,750 кадра/сек (512 SPF)
Битовая глубина : 24 бит
Метод сжатия : Без потерь / Lossy
Размер потока : 2,99 Гбайт (5%)
Заголовок : | AVO, Дохалов |
Язык : Russian
Default : Нет
Forced : Нет

Аудио #6
Идентификатор : 7
Формат : DTS
Формат/Информация : Digital Theater Systems
Профиль формата : MA / Core
Идентификатор кодека : A_DTS
Продолжительность : 2 ч. 12 м.
Вид битрейта : Переменный / Постоянный
Битрейт : 3261 Кбит/сек / 1509 Кбит/сек
Каналы : 6 каналов
Расположение каналов : Front: L C R, Side: L R, LFE
Частота : 48,0 КГц
Частота кадров : 93,750 кадра/сек (512 SPF)
Битовая глубина : 24 бит
Метод сжатия : Без потерь / Lossy
Размер потока : 3,02 Гбайт (5%)
Заголовок : | Original |
Язык : English
Default : Нет
Forced : Нет

Аудио #7
Идентификатор : 8
Формат : AC-3
Формат/Информация : Audio Coding 3
Идентификатор кодека : A_AC3
Продолжительность : 2 ч. 12 м.
Вид битрейта : Постоянный
Битрейт : 640 Кбит/сек
Каналы : 6 каналов
Расположение каналов : Front: L C R, Side: L R, LFE
Частота : 48,0 КГц
Частота кадров : 31,250 кадров/сек (1536 SPF)
Битовая глубина : 16 бит
Метод сжатия : С потерями
Размер потока : 606 Мбайт (1%)
Заголовок : | Original |
Язык : English
ServiceKind/String : Complete Main
Default : Нет
Forced : Нет

Текст #1
Идентификатор : 9
Формат : UTF-8
Идентификатор кодека : S_TEXT/UTF8
Идентификатор кодека/Информация : UTF-8 Plain Text
Продолжительность : 2 ч. 4 м.
Битрейт : 61 бит/сек
ElementCount : 1231
Размер потока : 55,9 Кбайт (0%)
Заголовок : Full
Язык : Russian
Default : Нет
Forced : Нет

Текст #2
Идентификатор : 10
Формат : UTF-8
Идентификатор кодека : S_TEXT/UTF8
Идентификатор кодека/Информация : UTF-8 Plain Text
Продолжительность : 2 ч. 12 м.
Битрейт : 38 бит/сек
ElementCount : 1399
Размер потока : 37,6 Кбайт (0%)
Заголовок : Full
Язык : English
Default : Нет
Forced : Нет

Текст #3
Идентификатор : 11
Формат : UTF-8
Идентификатор кодека : S_TEXT/UTF8
Идентификатор кодека/Информация : UTF-8 Plain Text
Продолжительность : 2 ч. 12 м.
Битрейт : 43 бит/сек
ElementCount : 1614
Размер потока : 42,2 Кбайт (0%)
Заголовок : SDH
Язык : English
Default : Нет
Forced : Нет

Меню
00:00:00.000 : en:Chapter 1
00:13:43.447 : en:Chapter 2
00:27:24.225 : en:Chapter 3
00:44:54.149 : en:Chapter 4
01:01:17.924 : en:Chapter 5
01:10:06.785 : en:Chapter 6
01:20:00.128 : en:Chapter 7
01:28:06.823 : en:Chapter 8
01:58:04.786 : en:Chapter 9
02:04:53.485 : en:Chapter 10



Скачать Драка в блоке 99 через торрент https://a.radikal.ru/a08/1806/09/004395c26010.jpg Скачать, смотреть онлайн Драка в блоке 99 бесплантно в хорошем качестве Описание: Бывший боксер и наркодилер Брэдли Томас пытался завязать с преступным прошлым, но оно затащило его обратно. Он с подельниками ... 9.3 10 4
Info! Золотая раздача, скачанное не засчитывается.
Торрент: Зарегистрирован [2018-06-06 02:47] · скачан: 46 раз
Статус: √ проверено
Размер: 58.62 GB
Как cкачать? Как скачать Драка в блоке 99 через торрент | UTorrent

% Раздел Тема Автор DL S | L
Фильмы (Blu-ray, BD-Remux, HDDVD) [ 34.9 GB ] Драка в блоке 99 / Brawl in Cell Block 99 | Лицензия | BD Remux 1080p bober100 Скачать
1 | 0
Фильмы [HD 720p, 1080p] (Хороший звук DUB, MVO) [ 5.8 GB ] Драка в блоке 99 / Brawl in Cell Block 99 | Jaskier | 720p bober100 Скачать
1 | 0
Фильмы 2017 [DVDrip, WEB-DLRip, HDrip] (DUB, MVO) [ 2.12 GB ] Драка в блоке 99 / Brawl in Cell Block 99 | Jaskier | BDRip bober100 Скачать
1 | 0
Фильмы 2017 [DVDrip, WEB-DLRip, HDrip] (DUB, MVO) [ 2.18 GB ] Драка в блоке 99 / Brawl in Cell Block 99 | Лицензия | BDRip от Twi7ter Twi7ter Скачать
1 | 0
Фильмы 2017 [DVDrip, WEB-DLRip, HDrip] (DUB, MVO) [ 1.46 GB ] Драка в блоке 99 / Brawl in Cell Block 99 | Лицензия | BDRip от Twi7ter Twi7ter Скачать
1 | 0
Фильмы 2017 [DVDrip, WEB-DLRip, HDrip] (DUB, MVO) [ 2.57 GB ] Драка в блоке 99 / Brawl in Cell Block 99 | AVO - ExKinoRay | BDRip-AVC Enigma2010 Скачать
1 | 0
Фильмы [HD 720p, 1080p] (Хороший звук DUB, MVO) [ 10.35 GB ] Драка в блоке 99 / Brawl in Cell Block 99 | Лицензия | 1080p bober100 Скачать
2 | 0

28-11-2019 20:33  

Отключить вcю реклaмy на сайте

    Дорогой пользователь! Огромная просьба, поблагодарите релизера, оцените раздачу и оставьте свои комментарий, если Вы скачали Драка в блоке 99 через торрент бесплатно!!
    Комментировать посты могут только пользователи прошедшие не сложную регистрацию
    Показать сообщения:    


    Драка в блоке 99 через торрент
    Скачать бесплатно Драка в блоке 99
    Драка в блоке 99 скачать торрент
    Драка в блоке 99 смотреть онлайн
    Cкачать фильм Драка в блоке 99 бесплатно
    Драка в блоке 99 скачать торрент в хорошем качестве
    Драка в блоке 99 смотреть онлайн бесплатно в хорошем качестве
    Вы не можете начинать темы
    Вы не можете отвечать на сообщения
    Вы не можете редактировать свои сообщения
    Вы не можете удалять свои сообщения
    Вы не можете голосовать в опросах
    Вы не можете прикреплять файлы к сообщениям
    Вы можете скачивать файлы