Всегда рабочее зеркало без VPN и Proxy просто перед .vidak.icu напиши любое слово или цифру, Пример http://ar8s.vidak.icu

MVO

2 сезон

1 сезон

1

1 сезон

iTunes

2 сезон

13

1 сезон

Deluxe

pack

Рекомендуем

Пиратка

30

ВАЖНО

RePack

MK11

RePack

jed

RePack

fifa19

RePack

RDR2

RePack

NEED FOR SPEED™ PAYBACK

Кинопоиск HD

6 сезон

 Острые козырьки 6 сезон

Все сериалы

все сериалы на PB.wtf

RePack

FAR CRY 5

Anonymous, нам критически не хватает 5601 руб. на оплату серверов и переферии за Апрель, помоги нам пожалуйста, вся надежда только на тебя. В благодарность мы отключим тебе всю рекламу на сайте!

×
  
Magnet ссылка

Колдун / Sorcerer (Уильям Фридкин) [1977, триллер, драма, приключения, BDRip 720p by msltel] AVO, 2 x VO (профессиональный) pb.wtf

Колдун через торрент pb.wtf

Размер: 5.97 GB | Добавлен: 3 года 11 мес. назад | Торрент скачан:12 раз
Смотреть онлайн Колдун | Скачать    Ребята, помогите собрать деньги на оплату серверов!!!

07-06-2018 07:27 Колдун Скачать торрент  

Название: Колдун
Оригинальное название: Sorcerer
Год выпуска: 1977
Страна: США
Жанр: триллер, драма, приключения
Продолжительность: 02:01:31
Перевод: закадровый одноголосый

Режиссер: Уильям Фридкин
В ролях: Рой Шайдер, Бруно Кремер, Франсиско Рабаль, Амиду, Питер Кэпелл, Рамон Бьери, Карл Джон, Фридрих фон Ледебур, Чико Мартинес, Джо Спинелл

О фильме: Нефтяная компания ищет водителей, готовых перевезти на грузовике груз со взрывчаткой. А четверо мужчин не могут вернуться в родные страны и, по разным причинам, вынуждены скрываться в Латинской Америке. Им нечего терять, но в случае успешного завершения операции каждый получит по 10 тысяч долларов и гражданство. Их ждут 200 миль дороги, где за каждым поворотом подстерегает опасность...



Качество: BDRip 720p
Формат: MKV
Видео: MPEG-4 AVC, 5756 Кбит/с, 1280x720, 23.976 кадр/с
Аудио 1: русский, AC3, 192 kbps, 2 ch, 48 kHz [закадровый одноголосый, Михаил Иванов]
Аудио 2: русский, AC3, 192 kbps, 2 ch, 48 kHz [закадровый одноголосый, Юрий Максимов]
Аудио 3: русский, AC3, 448 kbps, 6 ch, 48 kHz [закадровый одноголосый, Алексей Матвеев]
Аудио 4: английский, AC3, 448 kbps, 6 ch, 48 kHz [оригинал]
Английские хардсабы на неанглийскую речь.
Субтитры 1: русские
Субтитры 2: английские
Главы/чаптеры
Общее
Уникальный идентификатор : 194742885432902212008588202358486699170 (0x92821D8E350C244C9EA8AC5F57458CA2)
Полное имя : D:\Video\Колдун.1977.BDRip.720p by msltel.mkv
Формат : Matroska
Версия формата : Version 4 / Version 2
Размер файла : 5,97 Гбайт
Продолжительность : 2 ч. 1 м.
Общий поток : 7038 Кбит/сек
Название фильма : Rip by msltel
Дата кодирования : UTC 2018-06-06 11:35:41
Программа кодирования : mkvmerge v8.2.0 ('World of Adventure') 64bit
Библиотека кодирования : libebml v1.3.1 + libmatroska v1.4.2

Видео
Идентификатор : 1
Формат : AVC
Формат/Информация : Advanced Video Codec
Профиль формата : High@L4.1
Настройки формата : CABAC / 9 Ref Frames
Параметр CABAC формата : Да
Параметр RefFrames формата : 9 кадров
Идентификатор кодека : V_MPEG4/ISO/AVC
Продолжительность : 2 ч. 1 м.
Битрейт : 5756 Кбит/сек
Ширина : 1280 пикселей
Высота : 720 пикселей
Соотношение сторон : 16:9
Режим частоты кадров : Постоянный
Частота кадров : 23,976 (24000/1001) кадра/сек
Цветовое пространство : YUV
Субдискретизация насыщенности : 4:2:0
Битовая глубина : 8 бит
Тип развёртки : Прогрессивная
Бит/(Пиксели*Кадры) : 0.260
Размер потока : 4,88 Гбайт (82%)
Библиотека кодирования : x264 core 146 r2538 121396c
Настройки программы : cabac=1 / ref=9 / deblock=1:-3:-2 / analyse=0x3:0x113 / me=umh / subme=11 / psy=1 / psy_rd=1.00:0.15 / mixed_ref=1 / me_range=32 / chroma_me=1 / trellis=2 / 8x8dct=1 / cqm=0 / deadzone=21,11 / fast_pskip=0 / chroma_qp_offset=-3 / threads=6 / lookahead_threads=1 / sliced_threads=0 / nr=0 / decimate=1 / interlaced=0 / bluray_compat=0 / constrained_intra=0 / bframes=10 / b_pyramid=2 / b_adapt=2 / b_bias=0 / direct=1 / weightb=1 / open_gop=0 / weightp=2 / keyint=230 / keyint_min=23 / scenecut=40 / intra_refresh=0 / rc_lookahead=40 / rc=crf / mbtree=0 / crf=20.8 / qcomp=0.60 / qpmin=0 / qpmax=69 / qpstep=4 / vbv_maxrate=62500 / vbv_bufsize=78125 / crf_max=0.0 / nal_hrd=none / filler=0 / ip_ratio=1.40 / pb_ratio=1.30 / aq=1:1.00
Язык : English
Default : Да
Forced : Нет

Аудио #1
Идентификатор : 2
Формат : AC-3
Формат/Информация : Audio Coding 3
Идентификатор кодека : A_AC3
Продолжительность : 2 ч. 1 м.
Вид битрейта : Постоянный
Битрейт : 192 Кбит/сек
Каналы : 2 канала
Расположение каналов : Front: L R
Частота : 48,0 КГц
Частота кадров : 31,250 кадров/сек (1536 SPF)
Битовая глубина : 16 бит
Метод сжатия : С потерями
Размер потока : 167 Мбайт (3%)
Заголовок : Михаил Иванов
Язык : Russian
ServiceKind/String : Complete Main
Default : Да
Forced : Нет

Аудио #2
Идентификатор : 3
Формат : AC-3
Формат/Информация : Audio Coding 3
Идентификатор кодека : A_AC3
Продолжительность : 2 ч. 1 м.
Вид битрейта : Постоянный
Битрейт : 192 Кбит/сек
Каналы : 2 канала
Расположение каналов : Front: L R
Частота : 48,0 КГц
Частота кадров : 31,250 кадров/сек (1536 SPF)
Битовая глубина : 16 бит
Метод сжатия : С потерями
Размер потока : 167 Мбайт (3%)
Заголовок : Юрий Максимов
Язык : Russian
ServiceKind/String : Complete Main
Default : Нет
Forced : Нет

Аудио #3
Идентификатор : 4
Формат : AC-3
Формат/Информация : Audio Coding 3
Идентификатор кодека : A_AC3
Продолжительность : 2 ч. 1 м.
Вид битрейта : Постоянный
Битрейт : 448 Кбит/сек
Каналы : 6 каналов
Расположение каналов : Front: L C R, Side: L R, LFE
Частота : 48,0 КГц
Частота кадров : 31,250 кадров/сек (1536 SPF)
Битовая глубина : 16 бит
Метод сжатия : С потерями
Размер потока : 389 Мбайт (6%)
Заголовок : Алексей Матвеев
Язык : Russian
ServiceKind/String : Complete Main
Default : Нет
Forced : Нет

Аудио #4
Идентификатор : 5
Формат : AC-3
Формат/Информация : Audio Coding 3
Идентификатор кодека : A_AC3
Продолжительность : 2 ч. 1 м.
Вид битрейта : Постоянный
Битрейт : 448 Кбит/сек
Каналы : 6 каналов
Расположение каналов : Front: L C R, Side: L R, LFE
Частота : 48,0 КГц
Частота кадров : 31,250 кадров/сек (1536 SPF)
Битовая глубина : 16 бит
Метод сжатия : С потерями
Размер потока : 389 Мбайт (6%)
Заголовок : original
Язык : English
ServiceKind/String : Complete Main
Default : Нет
Forced : Нет

Текст #1
Идентификатор : 6
Формат : UTF-8
Идентификатор кодека : S_TEXT/UTF8
Идентификатор кодека/Информация : UTF-8 Plain Text
Продолжительность : 1 ч. 58 м.
Битрейт : 35 бит/сек
ElementCount : 551
Размер потока : 30,9 Кбайт (0%)
Заголовок : русские
Язык : Russian
Default : Нет
Forced : Нет

Текст #2
Идентификатор : 7
Формат : UTF-8
Идентификатор кодека : S_TEXT/UTF8
Идентификатор кодека/Информация : UTF-8 Plain Text
Продолжительность : 1 ч. 40 м.
Битрейт : 17 бит/сек
ElementCount : 427
Размер потока : 13,0 Кбайт (0%)
Заголовок : английские
Язык : English
Default : Нет
Forced : Нет

Меню
00:00:00.000 : :Chapter 01
00:01:29.798 : :Chapter 02
00:06:37.480 : :Chapter 03
00:16:12.930 : :Chapter 04
00:24:14.078 : :Chapter 05
00:40:14.370 : :Chapter 06
00:47:30.431 : :Chapter 07
00:52:00.993 : :Chapter 08
00:55:00.380 : :Chapter 09
01:03:27.095 : :Chapter 10
01:08:41.951 : :Chapter 11
01:15:46.834 : :Chapter 12
01:26:33.688 : :Chapter 13
01:41:17.988 : :Chapter 14
01:43:30.121 : :Chapter 15
01:47:16.138 : :Chapter 16
01:54:05.921 : :Chapter 17
01:58:32.105 : :Chapter 18
pb.wtf



Скачать Колдун через торрент https://b.radikal.ru/b03/1806/92/2977f9a37136.jpg Скачать, смотреть онлайн Колдун бесплантно в хорошем качестве О фильме: Нефтяная компания ищет водителей, готовых перевезти на грузовике груз со взрывчаткой. А четверо мужчин не могут вернуться в ... 6.5 10 2
Info! Золотая раздача, скачанное не засчитывается.
Торрент: Зарегистрирован [2018-06-07 07:27] · скачан: 12 раз
Статус: √ проверено
Размер: 5.97 GB
Как cкачать? Как скачать Колдун через торрент | UTorrent

% Раздел Тема Автор DL S | L
Фильмы с авторской озвучкой [ 16.38 GB ] Колдун / Sorcerer [1977 BDRip 1080p by msltel] AVO 2 x VO msltel Скачать
1 | 0

28-11-2019 20:33  

Отключить всю рекламу на сайте

    Дорогой пользователь! Огромная просьба, поблагодарите релизера, оцените раздачу и оставьте свои комментарий, если Вы скачали Колдун через торрент бесплатно!
    Комментировать посты могут только пользователи прошедшие не сложную регистрацию
    Показать сообщения:    

    Колдун через торрент
    Скачать бесплатно Колдун
    Колдун скачать торрент
    Колдун смотреть онлайн
    Cкачать фильм Колдун бесплатно
    Колдун скачать торрент в хорошем качестве
    Колдун смотреть онлайн бесплатно в хорошем качестве


    Вы не можете начинать темы
    Вы не можете отвечать на сообщения
    Вы не можете редактировать свои сообщения
    Вы не можете удалять свои сообщения
    Вы не можете голосовать в опросах
    Вы не можете прикреплять файлы к сообщениям
    Вы можете скачивать файлы