MEGA NEWS Получи личный уникальный адрес сайта и защити себя от блокировок. Внимание количество ограничено!!!

iTunes

1+1

iTunes

мы

iTunes

1

iTunes

Чернобыль

iTunes

Ральф против интернета

Лицензия

ПШазам

Лицензия

Игра престолов

Лицензия

30
pack

ВАЖНО

!!Акция!!

Alien_RageХит недели

RePack

Resident Evil 21

ИГРА 18+

pack

RePack

Metro:Exodus

!!Акция!!

Alien_Rage

RePack

fifa19

RePack

Assassins Creed: Odyssey

RePack

NEED FOR SPEED™ PAYBACK

3 сезон

9 сезон

Бесстыжие 9 сезон

Все сериалы

все сериалы на PB.wtf

RePack

FAR CRY 5
Ребята, катастрофически не хватает 1900р. для оплаты серверов за АВГУСТ (всвязи с блокировками трафик упал в 3 раза), 1-2р., выручайте.
  

Полная обнаженка / Stripped Naked (Ли Демарбр) [2009 г., Триллер, DVDRip-AVC, Профессиональный многоголосый] от ExKinoRay pb.wtf

Полная обнаженка через торрент pb.wtf

Размер: 1.93 GB | Добавлен: 1 год 3 мес. назад | Торрент скачан:27 раз
Скачать  

25-06-2018 19:32 Полная обнаженка Скачать торрент  

Полная обнаженка / Stripped Naked
Год выпуска: 2009
Страна: Канада
Жанр: Триллер
Продолжительность: 01:24:37
Перевод: Профессиональный многоголосый
Субтитры: Русские

Режиссер: Ли Демарбр

Премьера в мире: 21 сентября 2009

rating

В ролях: Сара Аллен, Томми-Амба При, Джон Кор, Марк Слак, Синтия Бурк, Линден Эшби, Луиджи Саракино, Гай Буллер, Дженили Мэрей, Пол Ренвил, Кэтрин Данс-Крэйг, Ким Гайт, Дэниэл Симпсон, Виктор Комфуут, Питэр Джат, Джон МакЛарен

Описание: Экзотическая танцовщица Кэсси крадёт деньги и наркотики, думая, что теперь она может осуществить свою мечту о переезде в Париж. Однако дальнейшие события стали разворачиваться более жёстко, чем казалось. Тем не менее, Кэсси не намерена отказаться от своей мечты, независимо от того, через какое количество тел ей предстоит переступить!

Качество: DVDRip-AVC
Формат: MKV
Видео кодек: MPEG4
Аудио кодек: AC3
Видео: MPEG-4 AVC, 2500 Кбит/с, 720x576@1024x576
Аудио#1: Русский (AC3, 6 ch, 384 Кбит/с, 48 КГц)
Аудио#2: Английский (AC3, 6 ch, 384 Кбит/с, 48 КГц)
Релиз от:




avs [info]: 720x576p 64:45 @ 25/1 fps (cfr)
x264 [info]: using SAR=64/45
x264 [info]: using cpu capabilities: MMX2 SSE2Fast LZCNT
x264 [info]: profile High, level 4.1
x264 [info]: frame I:982 Avg QP:15.05 size: 59653
x264 [info]: frame P:27918 Avg QP:17.65 size: 26134
x264 [info]: frame B:98040 Avg QP:19.78 size: 8129
x264 [info]: consecutive B-frames: 2.5% 3.0% 15.9% 5.0% 6.0% 63.4% 1.1% 0.1% 0.5% 1.0% 0.2% 0.1% 0.8% 0.0% 0.0% 0.0% 0.3%
-----
Общее
Уникальный идентификатор : 233960565645348510655593494299812831235 (0xB0032A799DBC393FAC641751442C2003)
Полное имя : D:\ExKinoRayRips\Stripped.Naked.2009.DVDRip-AVC.ExKinoRay.mkv
Формат : Matroska
Версия формата : Version 2
Размер файла : 1,93 Гбайт
Продолжительность : 1 ч. 24 м.
Общий поток : 3268 Кбит/сек
Дата кодирования : UTC 2018-06-25 16:05:44
Программа кодирования : mkvmerge v7.8.0 ('River Man') 32bit built on Apr 3 2015 12:11:22
Библиотека кодирования : libebml v1.3.1 + libmatroska v1.4.2

Видео
Идентификатор : 1
Формат : AVC
Формат/Информация : Advanced Video Codec
Профиль формата : High@L4.1
Параметр CABAC формата : Да
Параметр ReFrames формата : 14 кадров
Идентификатор кодека : V_MPEG4/ISO/AVC
Продолжительность : 1 ч. 24 м.
Битрейт : 2500 Кбит/сек
Ширина : 720 пикселей
Высота : 576 пикселей
Соотношение сторон : 16:9
Режим частоты кадров : Постоянный
Частота кадров : 25,000 кадров/сек
Стандарт вещания : PAL
Цветовое пространство : YUV
Субдискретизация насыщенности : 4:2:0
Битовая глубина : 8 бит
Тип развёртки : Прогрессивная
Бит/(Пиксели*Кадры) : 0.241
Размер потока : 1,44 Гбайт (75%)
Библиотека кодирования : x264 core 148 r2638 7599210
Настройки программы : cabac=1 / ref=14 / deblock=1:-2:-2 / analyse=0x3:0x133 / me=umh / subme=10 / psy=1 / psy_rd=1.05:0.15 / mixed_ref=1 / me_range=32 / chroma_me=1 / trellis=2 / 8x8dct=1 / cqm=0 / deadzone=21,11 / fast_pskip=0 / chroma_qp_offset=-3 / threads=4 / lookahead_threads=1 / sliced_threads=0 / nr=0 / decimate=0 / interlaced=0 / bluray_compat=0 / constrained_intra=0 / bframes=16 / b_pyramid=2 / b_adapt=2 / b_bias=0 / direct=3 / weightb=1 / open_gop=0 / weightp=2 / keyint=250 / keyint_min=25 / scenecut=40 / intra_refresh=0 / rc=2pass / mbtree=0 / bitrate=2500 / ratetol=1.0 / qcomp=0.60 / qpmin=0 / qpmax=69 / qpstep=4 / cplxblur=20.0 / qblur=0.5 / ip_ratio=1.40 / pb_ratio=1.30 / aq=1:1.00
Язык : English
Default : Да
Forced : Нет
Цветовой диапазон : Limited
Основные цвета : BT.601 NTSC
Характеристики трансфера : BT.601
Коэффициенты матрицы : BT.601

Аудио #1
Идентификатор : 2
Формат : AC-3
Формат/Информация : Audio Coding 3
Расширение режима : CM (complete main)
Параметр Endianness формата : Big
Идентификатор кодека : A_AC3
Продолжительность : 1 ч. 24 м.
Вид битрейта : Постоянный
Битрейт : 384 Кбит/сек
Каналы : 6 каналов
Расположение каналов : Front: L C R, Side: L R, LFE
Частота : 48,0 КГц
Частота кадров : 31,250 кадров/сек (1536 spf)
Метод сжатия : С потерями
Размер потока : 232 Мбайт (12%)
Язык : Russian
Default : Да
Forced : Нет

Аудио #2
Идентификатор : 3
Формат : AC-3
Формат/Информация : Audio Coding 3
Расширение режима : CM (complete main)
Параметр Endianness формата : Big
Идентификатор кодека : A_AC3
Продолжительность : 1 ч. 24 м.
Вид битрейта : Постоянный
Битрейт : 384 Кбит/сек
Каналы : 6 каналов
Расположение каналов : Front: L C R, Side: L R, LFE
Частота : 48,0 КГц
Частота кадров : 31,250 кадров/сек (1536 spf)
Метод сжатия : С потерями
Размер потока : 232 Мбайт (12%)
Язык : English
Default : Нет
Forced : Нет

Текст
Идентификатор : 4
Формат : UTF-8
Идентификатор кодека : S_TEXT/UTF8
Идентификатор кодека/Информация : UTF-8 Plain Text
Язык : Russian
Default : Да
Forced : Нет

pb.wtf



Скачать Полная обнаженка через торрент http://a.radikal.ru/a12/1806/96/e816be6fcb10.jpg Скачать фильм Полная обнаженка через торрент бесплантно в хорошем качестве Описание: Экзотическая танцовщица Кэсси крадёт деньги и наркотики, думая, что теперь она может осуществить свою мечту о переезде в Париж. ... 10 10 1
Info! Золотая раздача, скачанное не засчитывается.
Торрент: Зарегистрирован [2018-06-25 19:32] · скачан: 27 раз
Статус: √ проверено
Размер: 1.93 GB
Как cкачать? Как скачать Полная обнаженка через торрент | qTorrent


>> Регистрируемся здесь <<






Отзывы и комментарии о схеме читаем и пишем здесь: ---> Отзывы и комментарии о схеме

Новые благодарочки в телеграм довольных пользователей:
скриншот   скриншот   скриншот   скриншот   скриншот

25-06-2018 19:37 Полная обнаженка Скачать торрент  

Топик был перенесен из форума Оформление раздач (Кино, Видео и ТВ) в форум Фильмы 2009


bober100pb.wtf



    Дорогой пользователь! Огромная просьба, поблагодарите релизера, оцените раздачу и оставьте свои комментарий, если Вы скачали Полная обнаженка через торрент бесплатно! Внесите свою лепту в развитие PiratBit!
    Комментировать посты могут только пользователи прошедшие не сложную регистрацию
    Показать сообщения:    

    Полная обнаженка через торрент
    Скачать бесплатно Полная обнаженка
    Полная обнаженка скачать торрент
    Полная обнаженка смотреть онлайн
    Cкачать фильм Полная обнаженка бесплатно
    Полная обнаженка скачать торрент в хорошем качестве
    Полная обнаженка смотреть онлайн бесплатно в хорошем качестве


    Вы не можете начинать темы
    Вы не можете отвечать на сообщения
    Вы не можете редактировать свои сообщения
    Вы не можете удалять свои сообщения
    Вы не можете голосовать в опросах
    Вы не можете прикреплять файлы к сообщениям
    Вы можете скачивать файлы