Доктор Стрэндж

Лицензия

Добыча

MVO

Дом дракона

1 сезон

Тор

Лицензия

Мэверик

Лицензия

Там, где раки поют

MVO

Властелин колец

1 сезон

Ultimate

pack

Рекомендуем

30

Repack

ВАЖНО

ВАЖНО

Ghostwire

RePack

jed

RePack

nioh2

RePack

RDR2

RePack

NEED FOR SPEED™ PAYBACK

RePack

скачать торрент

Кинопоиск HD

Острые козырьки 6 сезон

6 сезон

FAR CRY 6

RePack

скачать торрент

Лицензия

скачать торрент

MVO

1

1 сезон

скачать торрент

1 сезон

скачать торрент

Лицензия

  

Антураж / Entourage (Даг Эллин) [2015, комедия, UHD WEBRip 2160p] DUB (rus, ukr) [Лицензия]

Антураж через торрент pb.wtf

Размер: 22.84 GB | Добавлен: 4 года 3 мес. назад | Торрент скачан:29 раз
Смотреть онлайн Антураж | Скачать   

29-06-2018 20:14 Антураж Скачать торрент  

Антураж / Entourage
Год выпуска: 2015
Страна: США
Жанр: комедия
Продолжительность: 01:44:30
Перевод: Дублированный | Лицензия
Субтитры: Русские (Форсированные, полные), украинские (Форсированные, полные), английские (Full,SDH Colored), французские

Режиссер: Даг Эллин

rating

В ролях:

Кевин Коннолли, Адриан Гренье, Кевин Диллон, Джерри Феррара, Джереми Пивен, Эммануэль Шрики, Хейли Джоэл Осмент, Ронда Раузи, Рекс Ли, Билли Боб Торнтон, Перри Ривз, Деби Мейзар, Рис Койро, Констанс Зиммер, Скотт Мескади, Алан Дэйл, Эмили Ратажковски, Нина Агдал, Лукас Эллин, Пирс Морган

Описание:

Звезда большого экрана Винсент Чейз и его друзья Эрик, Черепаха и Джонни вернулись и снова в деле вместе с бывшим агентом, а ныне главой студии, Ари Голдом. Амбиции меняются, но это заставляет их лишь крепче держаться друг за друга в гламурном и часто капризном мире Голливуда.

Качество: UHD WEBRip 2160p
Формат: MKV

Видео: HEVC HDR, 26.5 Mбит/с, 3840x1600, 23.976 кадр/с
Аудио#1: Русский (АС3, 6 ch, 640 Кбит/с, 48.0 KHz) / Дубляж (Blu-ray CEE)
Аудио#2: Украинский (АС3, 2 ch, 192 Кбит/с, 48.0 KHz) / Дубляж (iTunes Russia)
Аудио#3: Английский (DTS-HD MA, 6 ch, 3571 Кбит/с, 48.0 KHz)
Аудио#4: Французский (АС3, 6 ch, 384 Кбит/с, 48.0 KHz)
скриншот   скриншот   скриншот   скриншот   скриншот  

General
Unique ID : 318495932530766875464657677589876396616 (0xEF9C15DA53AF849512B4175EF1715248)
Complete name : C:UsersPublicVideosSample VideosFilmyEntourage.2015.2160p.HDR.WEBRip.MS.MediaClub.mkv
Format : Matroska
Format version : Version 4 / Version 2
File size : 22.8 GiB
Duration : 1 h 44 min
Overall bit rate : 31.3 Mb/s
Encoded date : UTC 2018-06-24 14:59:04
Writing application : mkvmerge v19.0.0 ('Brave Captain') 64-bit
Writing library : libebml v1.3.5 + libmatroska v1.4.8
Cover : Yes
Attachments : cover.jpg

Video
ID : 1
Format : HEVC
Format/Info : High Efficiency Video Coding
Commercial name : HDR10
Format profile : Main [email protected]@Main
Codec ID : V_MPEGH/ISO/HEVC
Duration : 1 h 44 min
Bit rate : 26.5 Mb/s
Width : 3 840 pixels
Height : 1 600 pixels
Display aspect ratio : 2.40:1
Frame rate mode : Constant
Frame rate : 23.976 (24000/1001) FPS
Color space : YUV
Chroma subsampling : 4:2:0
Bit depth : 10 bits
Bits/(Pixel*Frame) : 0.180
Stream size : 19.3 GiB (85%)
Title : WEBRip.2160p.HDR by Silverok
Writing library : x265 2.6+31-3712d13c09bf:[Windows][GCC 7.2.0][64 bit] 10bit
Encoding settings : cpuid=1173503 / frame-threads=3 / numa-pools=8 / wpp / no-pmode / no-pme / no-psnr / no-ssim / log-level=2 / input-csp=1 / input-res=3840x1600 / interlace=0 / total-frames=150346 / level-idc=0 / high-tier=1 / uhd-bd=0 / ref=3 / no-allow-non-conformance / repeat-headers / annexb / no-aud / no-hrd / info / hash=0 / no-temporal-layers / open-gop / min-keyint=23 / keyint=250 / gop-lookahead=0 / bframes=4 / b-adapt=2 / b-pyramid / bframe-bias=0 / rc-lookahead=20 / lookahead-slices=8 / scenecut=40 / radl=0 / no-intra-refresh / ctu=64 / min-cu-size=8 / no-rect / no-amp / max-tu-size=32 / tu-inter-depth=1 / tu-intra-depth=1 / limit-tu=0 / rdoq-level=0 / dynamic-rd=0.00 / no-ssim-rd / signhide / no-tskip / nr-intra=0 / nr-inter=0 / no-constrained-intra / strong-intra-smoothing / max-merge=2 / limit-refs=3 / no-limit-modes / me=1 / subme=2 / merange=57 / temporal-mvp / weightp / no-weightb / no-analyze-src-pics / deblock=0:0 / sao / no-sao-non-deblock / rd=3 / no-early-skip / rskip / no-fast-intra / no-tskip-fast / no-cu-lossless / no-b-intra / no-splitrd-skip / rdpenalty=0 / psy-rd=2.00 / psy-rdoq=0.00 / no-rd-refine / no-lossless / cbqpoffs=0 / crqpoffs=0 / rc=crf / crf=11.0 / qcomp=0.60 / qpstep=4 / stats-write=0 / stats-read=0 / ipratio=1.40 / pbratio=1.30 / aq-mode=1 / aq-strength=1.00 / cutree / zone-count=0 / no-strict-cbr / qg-size=32 / no-rc-grain / qpmax=69 / qpmin=0 / no-const-vbv / sar=0 / overscan=0 / videoformat=5 / range=0 / colorprim=9 / transfer=16 / colormatrix=9 / chromaloc=0 / display-window=0 / master-display=G(13250,34500)B(7500,3000)R(34000,16000)WP(15635,16450)L(39990000,50) / max-cll=4000,1000 / min-luma=0 / max-luma=1023 / log2-max-poc-lsb=8 / vui-timing-info / vui-hrd-info / slices=1 / no-opt-qp-pps / no-opt-ref-list-length-pps / no-multi-pass-opt-rps / scenecut-bias=0.05 / no-opt-cu-delta-qp / no-aq-motion / hdr / hdr-opt / no-dhdr10-opt / analysis-reuse-level=5 / scale-factor=0 / refine-intra=0 / refine-inter=0 / refine-mv=0 / no-limit-sao / ctu-info=0 / no-lowpass-dct / refine-mv-type=0 / copy-pic=1
Default : Yes
Forced : No
Color range : Limited
Color primaries : BT.2020
Transfer characteristics : PQ
Matrix coefficients : BT.2020 non-constant
Mastering display color primaries : BT.709
Mastering display luminance : min: 0.0050 cd/m2, max: 3999 cd/m2
Maximum Content Light Level : 4000 cd/m2
Maximum Frame-Average Light Level : 1000 cd/m2

Audio #1
ID : 2
Format : AC-3
Format/Info : Audio Coding 3
Codec ID : A_AC3
Duration : 1 h 44 min
Bit rate mode : Constant
Bit rate : 640 kb/s
Channel(s) : 6 channels
Channel positions : Front: L C R, Side: L R, LFE
Sampling rate : 48.0 kHz
Frame rate : 31.250 FPS (1536 SPF)
Bit depth : 16 bits
Compression mode : Lossy
Stream size : 478 MiB (2%)
Title : Дубляж, Blu-ray CEE
Language : Russian
Service kind : Complete Main
Default : Yes
Forced : No

Audio #2
ID : 3
Format : AC-3
Format/Info : Audio Coding 3
Codec ID : A_AC3
Duration : 1 h 44 min
Bit rate mode : Constant
Bit rate : 192 kb/s
Channel(s) : 2 channels
Channel positions : Front: L R
Sampling rate : 48.0 kHz
Frame rate : 31.250 FPS (1536 SPF)
Bit depth : 16 bits
Compression mode : Lossy
Stream size : 143 MiB (1%)
Title : Дубляж, iTunes Russia
Language : Ukrainian
Service kind : Complete Main
Default : No
Forced : No

Audio #3
ID : 4
Format : DTS
Format/Info : Digital Theater Systems
Format profile : MA / Core
Codec ID : A_DTS
Duration : 1 h 44 min
Bit rate mode : Variable / Constant
Bit rate : 3 571 kb/s / 1 509 kb/s
Channel(s) : 6 channels
Channel positions : Front: L C R, Side: L R, LFE
Sampling rate : 48.0 kHz
Frame rate : 93.750 FPS (512 SPF)
Bit depth : 24 bits
Compression mode : Lossless / Lossy
Stream size : 2.61 GiB (11%)
Language : English
Default : No
Forced : No

Audio #4
ID : 5
Format : AC-3
Format/Info : Audio Coding 3
Codec ID : A_AC3
Duration : 1 h 44 min
Bit rate mode : Constant
Bit rate : 384 kb/s
Channel(s) : 6 channels
Channel positions : Front: L C R, Side: L R, LFE
Sampling rate : 48.0 kHz
Frame rate : 31.250 FPS (1536 SPF)
Bit depth : 16 bits
Compression mode : Lossy
Stream size : 287 MiB (1%)
Language : French
Service kind : Complete Main
Default : No
Forced : No

Text #1
ID : 6
Format : UTF-8
Codec ID : S_TEXT/UTF8
Codec ID/Info : UTF-8 Plain Text
Duration : 1 h 33 min
Bit rate : 0 b/s
Count of elements : 12
Stream size : 407 Bytes (0%)
Title : Forced
Language : Russian
Default : Yes
Forced : Yes

Text #2
ID : 7
Format : UTF-8
Codec ID : S_TEXT/UTF8
Codec ID/Info : UTF-8 Plain Text
Duration : 1 h 43 min
Bit rate : 161 b/s
Count of elements : 1963
Stream size : 123 KiB (0%)
Title : Full
Language : Russian
Default : No
Forced : No

Text #3
ID : 8
Format : UTF-8
Codec ID : S_TEXT/UTF8
Codec ID/Info : UTF-8 Plain Text
Duration : 1 h 43 min
Bit rate : 0 b/s
Count of elements : 21
Stream size : 608 Bytes (0%)
Title : Forced
Language : Ukrainian
Default : No
Forced : No

Text #4
ID : 9
Format : UTF-8
Codec ID : S_TEXT/UTF8
Codec ID/Info : UTF-8 Plain Text
Duration : 1 h 43 min
Bit rate : 140 b/s
Count of elements : 1895
Stream size : 106 KiB (0%)
Title : Full
Language : Ukrainian
Default : No
Forced : No

Text #5
ID : 10
Format : UTF-8
Codec ID : S_TEXT/UTF8
Codec ID/Info : UTF-8 Plain Text
Duration : 1 h 38 min
Bit rate : 106 b/s
Count of elements : 1876
Stream size : 77.2 KiB (0%)
Title : Full
Language : English
Default : No
Forced : No

Text #6
ID : 11
Format : UTF-8
Codec ID : S_TEXT/UTF8
Codec ID/Info : UTF-8 Plain Text
Duration : 1 h 43 min
Bit rate : 113 b/s
Count of elements : 1940
Stream size : 85.8 KiB (0%)
Title : SDH Colored
Language : English
Default : No
Forced : No

Text #7
ID : 12
Format : UTF-8
Codec ID : S_TEXT/UTF8
Codec ID/Info : UTF-8 Plain Text
Duration : 1 h 39 min
Bit rate : 81 b/s
Count of elements : 1886
Stream size : 59.7 KiB (0%)
Title : Full
Language : French
Default : No
Forced : No




Скачать Антураж через торрент http://img11.lostpic.net/2018/06/29/44969bd155e9bb3d8b6e072985fb3d62.jpg Скачать, смотреть онлайн Антураж бесплантно в хорошем качестве Описание: Звезда большого экрана Винсент Чейз и его друзья Эрик, Черепаха и Джонни вернулись и снова в деле вместе с бывшим агентом, а ныне ... 10 10 2
Торрент: Зарегистрирован [2018-06-29 20:14] · скачан: 29 раз
Статус: √ проверено
Размер: 22.84 GB
Как cкачать? Как скачать Антураж через торрент | UTorrent

% Раздел Тема Автор DL S | L
Зарубежные сериалы [ 47.07 GB ] Красавцы / Антураж / Entourage / Сезоны: 1-8 из 8 / Серии: 1-96 из 96 | Amedia | HDRip, BDRip killermax2013 Скачать
1 | 0
Фильмы (Blu-ray, BD-Remux, HDDVD) [ 34.11 GB ] Антураж / Entourage | Лицензия | Blu-ray Skribl Скачать
1 | 0
Фильмы 2015 [DVDrip, WEB-DLRip, HDrip] [ 2.18 GB ] Антураж / Entourage | Лицензия | BDRip-AVC от sokol_ok sokol_ok Скачать
2 | 0
Фильмы 2015 [DVDrip, WEB-DLRip, HDrip] [ 1.46 GB ] Антураж / Entourage | Лицензия | BDRip-AVC от sokol_ok sokol_ok Скачать
2 | 0
Фильмы 2015 [DVDrip, WEB-DLRip, HDrip] [ 1.46 GB ] Антураж / Entourage | Лицензия | BDRip от Twi7ter Twi7ter Скачать
1 | 0
Фильмы 2015 [DVDrip, WEB-DLRip, HDrip] [ 2.18 GB ] Антураж / Entourage | Лицензия | BDRip-AVC от potroks potroks Скачать
1 | 0
Фильмы [HD 720p, 1080p] (Хороший звук DUB, MVO) [ 7.75 GB ] Антураж / Entourage | Лицензия | 720p от _denis_100 / NNNB _denis_100 Скачать
1 | 0

28-11-2019 20:33  

Отключить вcю реклaмy на сайте

    Дорогой пользователь! Огромная просьба, поблагодарите релизера, оцените раздачу и оставьте свои комментарий, если Вы скачали Антураж через торрент бесплатно!!
    Комментировать посты могут только пользователи прошедшие не сложную регистрацию
    Показать сообщения:    


    Антураж через торрент
    Скачать бесплатно Антураж
    Антураж скачать торрент
    Антураж смотреть онлайн
    Cкачать фильм Антураж бесплатно
    Антураж скачать торрент в хорошем качестве
    Антураж смотреть онлайн бесплатно в хорошем качестве
    Вы не можете начинать темы
    Вы не можете отвечать на сообщения
    Вы не можете редактировать свои сообщения
    Вы не можете удалять свои сообщения
    Вы не можете голосовать в опросах
    Вы не можете прикреплять файлы к сообщениям
    Вы можете скачивать файлы