Ссылка на приватное зеркало нашего сайта всего за 1$. Внимание количество ограничено!!!

2 сезон

iTunes

1 сезон

1

2 сезон

2 сезон

iTunes

1 сезон

RePack

30

Новинка

ВАЖНО

ИГРА 18+

pack

RePack

MK11
pack

Забери бонус

RePack

jed

!!Акция!!

Alien_Rage

RePack

fifa19

RePack

Assassins Creed: Odyssey

RePack

NEED FOR SPEED™ PAYBACK

4 сезон

9 сезон

Бесстыжие 9 сезон

Все сериалы

все сериалы на PB.wtf

RePack

FAR CRY 5
  

Немного солнца в холодной воде / Un peu de soleil dans l'eau froide (Жак Дере) [1971 г., драма, мелодрама, DVDRip, Профессиональный (многоголосый)] pb.wtf

Немного солнца в холодной воде через торрент pb.wtf

Размер: 1.46 GB | Добавлен: 2 года 4 мес. назад | Торрент скачан:4 раза
Скачать  

02-07-2018 15:53 Немного солнца в холодной воде Скачать торрент  

Немного солнца в холодной воде / Un peu de soleil dans l'eau froide
Год выпуска: 1971
Страна: Франция, Италия
Жанр: драма, мелодрама
Продолжительность: 01:45:56
Перевод: Профессиональный (многоголосый)
Субтитры: Отсутствуют

Режиссер: Жак Дере

rating

В ролях: Клодин Оже, Марк Порель, Жюдит Магр, Барбара Бах, Андре Фалькон, Жан-Клод Карьер, Надин Алари, Жерар Депардье, Марк Эйро, Жак Дебари

Описание: У молодого француза Жиля хорошая работа, приличная зарплата и симпатичная любовница-американка, а о создании своей семьи Жиль пока еще не задумывается. Но он все чаще впадает в состояние сильной депрессии… Однажды он отправился в провинцию, чтобы навестить сестру. И здесь, в «деревенской глуши», Жиль неожиданно влюбился в женщину. Она старше Жиля, но разве это препятствие, если вихрь страсти закружил обоих?..
По одноименному роману Франсуазы Саган.

Качество: DVDRip
Формат: AVI
Видео кодек: DivX
Аудио кодек: AC3
Видео: Видео: XviD, 720x432 , 25.0fps, 1569 Kbps
Аудио#1: AC3 , 2 ch , 48 kHz , 192 kbps - русский
Аудио#2: AC3 , 2 ch , 48 kHz , 192 kbps - французский
Общее
Полное имя : D:Un.peu.de.soleil.dans.l.eau.froide_1971.DVDRip.avi
Формат : AVI
Формат/Информация : Audio Video Interleave
Размер файла : 1,46 Гбайт
Продолжительность : 1 ч. 45 м.
Общий поток : 1967 Кбит/сек
Режиссёр : BINMoVIE.ORG
Программа кодирования : VirtualDubMod 1.6.0.0 SURROUND (build 2560/release)
Библиотека кодирования : VirtualDubMod build 2560/release
Правообладатель : DVDRip by romaska

Видео
Идентификатор : 0
Формат : MPEG-4 Visual
Параметр BVOP формата : 1
Параметр QPel формата : Нет
Параметр GMC формата : Без точки перехода
Параметр матрицы формата : Default (H.263)
Режим смешивания : Сжатый битовый поток
Идентификатор кодека : DX50
Идентификатор кодека/Подсказка : DivX 5
Продолжительность : 1 ч. 45 м.
Битрейт : 1569 Кбит/сек
Ширина : 720 пикселей
Высота : 432 пикселя
Соотношение сторон : 5:4
Соотношение сторон в оригинале : 1,667
Частота кадров : 25,000 кадров/сек
Цветовое пространство : YUV
Субдискретизация насыщенности : 4:2:0
Битовая глубина : 8 бит
Тип развёртки : Прогрессивная
Метод сжатия : С потерями
Бит/(Пиксели*Кадры) : 0.202
Размер потока : 1,16 Гбайт (80%)
Библиотека кодирования : DivX 6.8.5 (UTC 2009-08-20)

Аудио #1
Идентификатор : 1
Формат : AC-3
Формат/Информация : Audio Coding 3
Расширение режима : CM (complete main)
Параметр Endianness формата : Big
Идентификатор кодека : 2000
Продолжительность : 1 ч. 45 м.
Вид битрейта : Постоянный
Битрейт : 192 Кбит/сек
Каналы : 2 канала
Расположение каналов : Front: L R
Частота : 48,0 КГц
Битовая глубина : 16 бит
Метод сжатия : С потерями
Размер потока : 145 Мбайт (10%)
Выравнивание : Разделение по промежуткам
Продолжительность промежутка : 40 мс. (1,00 видеокадр)
Время предзагрузки промежутка : 500 мс.

Аудио #2
Идентификатор : 2
Формат : AC-3
Формат/Информация : Audio Coding 3
Расширение режима : CM (complete main)
Параметр Endianness формата : Big
Идентификатор кодека : 2000
Продолжительность : 1 ч. 45 м.
Вид битрейта : Постоянный
Битрейт : 192 Кбит/сек
Каналы : 2 канала
Расположение каналов : Front: L R
Частота : 48,0 КГц
Битовая глубина : 16 бит
Метод сжатия : С потерями
Размер потока : 145 Мбайт (10%)
Выравнивание : Разделение по промежуткам
Продолжительность промежутка : 40 мс. (1,00 видеокадр)
Время предзагрузки промежутка : 500 мс.

pb.wtf



Скачать Немного солнца в холодной воде через торрент http://i105.fastpic.ru/big/2018/0702/d6/b9e873a5f4ad340abb001fe5816795d6.jpg Скачать фильм Немного солнца в холодной воде через торрент бесплантно в хорошем качестве Описание: У молодого француза Жиля хорошая работа, приличная зарплата и симпатичная любовница-американка, а о создании своей семьи Жиль ... 9 10 3
Торрент: Зарегистрирован [2018-07-02 15:53] · скачан: 4 раз
Статус: √ проверено
Размер: 1.46 GB
Как cкачать? Как скачать Немного солнца в холодной воде через торрент | qTorrent

28-11-2019 20:33  

Отключить всю рекламу на сайте

02-07-2018 18:37 Немного солнца в холодной воде Скачать торрент  

Скорпион1976, напоминаю, запрещено заливать скриншоты с переходом на сайт фотохостинга, подробнее здесь: Видео. Изменения в правилах заливки скриншотов!
Скриншоты перезалил.pb.wtf



02-07-2018 18:41 Немного солнца в холодной воде Скачать торрент  

Топик был перенесен из форума Оформление раздач (Кино, Видео и ТВ) в форум Классика зарубежного кино


-Lexx-pb.wtf



02-07-2018 19:35 Немного солнца в холодной воде Скачать торрент  

-Lexx- писал(а):

Скорпион1976, напоминаю, запрещено заливать скриншоты с переходом на сайт фотохостинга, подробнее здесь: Видео. Изменения в правилах заливки скриншотов!
Скриншоты перезалил.

Не могу понять,один Модер одно пишет,другой другое
Приветствую!!! У Ваших прошлых раздач, я сам уменьшал размер постера!
Вот примеры на хостингах fastpic.ru picsee.netpb.wtf



    Дорогой пользователь! Огромная просьба, поблагодарите релизера, оцените раздачу и оставьте свои комментарий, если Вы скачали Немного солнца в холодной воде через торрент бесплатно! Внесите свою лепту в развитие PiratBit!
    Комментировать посты могут только пользователи прошедшие не сложную регистрацию
    Показать сообщения:    

    Немного солнца в холодной воде через торрент
    Скачать бесплатно Немного солнца в холодной воде
    Немного солнца в холодной воде скачать торрент
    Немного солнца в холодной воде смотреть онлайн
    Cкачать фильм Немного солнца в холодной воде бесплатно
    Немного солнца в холодной воде скачать торрент в хорошем качестве
    Немного солнца в холодной воде смотреть онлайн бесплатно в хорошем качестве


    Вы не можете начинать темы
    Вы не можете отвечать на сообщения
    Вы не можете редактировать свои сообщения
    Вы не можете удалять свои сообщения
    Вы не можете голосовать в опросах
    Вы не можете прикреплять файлы к сообщениям
    Вы можете скачивать файлы