Всегда рабочее зеркало без VPN и Proxy просто перед .vidak.icu напиши любое слово или цифру, Пример http://dygl.vidak.icu

MVO

Лицензия

1 сезон

1

1 сезон

iTunes

1 сезон

13

1 сезон

Deluxe

pack

Рекомендуем

Repack

30

ВАЖНО

RePack

MK11

RePack

jed

RePack

fifa19

RePack

RDR2

RePack

NEED FOR SPEED™ PAYBACK

Кинопоиск HD

6 сезон

 Острые козырьки 6 сезон

Все сериалы

все сериалы на PB.wtf

RePack

FAR CRY 5
  
Magnet ссылка

Терминатор / The Terminator (Джеймс Кэмерон) [1984 г., Фантастика, боевик, BD Remux, Дубляж] pb.wtf

Терминатор через торрент pb.wtf

Размер: 24.34 GB | Добавлен: 3 года 11 мес. назад | Торрент скачан:4 раза
Смотреть онлайн Терминатор | Скачать    Ребята, помогите собрать деньги на оплату серверов!!!

09-07-2018 13:28 Терминатор Скачать торрент  

Терминатор / The Terminator
Год выпуска: 1984
Страна: Великобритания, США
Жанр: Фантастика, боевик
Продолжительность: 01:47:26
Перевод: Дубляж
Субтитры: русские (Форсированные)

Режиссер: Джеймс Кэмерон

Бюджет: $6 400 000
Премьера в мире: 26 октября 1984

rating

В ролях: Арнольд Шварценеггер, Майкл Бин, Линда Хэмилтон, Пол Уинфилд, Лэнс Хенриксен, Рик Россович, Бесс Мотта, Эрл Боэн, Дик Миллер, Шоун Шеппс

Описание: История противостояния солдата Кайла Риза и киборга-терминатора, прибывших в 1984-й год из пост-апокалиптического будущего, где миром правят машины-убийцы, а человечество находится на грани вымирания. Цель киборга: убить девушку по имени Сара Коннор, чей ещё нерождённый сын к 2029 году выиграет войну человечества с машинами. Цель Риза: спасти Сару и остановить Терминатора любой ценой.

Качество: BD Remux
Формат: MKV
Видео кодек: MPEG4
Аудио кодек: DTS
Видео: 1920x1080 (16:9), 32001 Kbps, 23,976 fps, 0.838 bit/pixel
Аудио#1: Russian / DTS Audio / 5.1 / 48 kHz / 768 kbps / Дублированный, Blu-ray CEE
скриншот   скриншот  





Общее
Уникальный идентификатор : 319613968515811077708215968172950594352 (0xF07369486504B573E714D43F6132A330)
Полное имя : E:\Фильмы\Терминатор.mkv
Формат : Matroska
Версия формата : Version 4 / Version 2
Размер файла : 24,3 Гбайт
Продолжительность : 1 ч. 47 м.
Режим общего битрейта : Переменный
Общий поток : 32,4 Мбит/сек
Название фильма : The Terminator (1984) - Release for RuTracker by Skazhutin & Прагматик
Дата кодирования : UTC 2018-07-09 12:23:17
Программа кодирования : mkvmerge v20.0.0 ('I Am The Sun') 64-bit
Библиотека кодирования : libebml v1.3.5 + libmatroska v1.4.8
Обложка : Yes
Attachments : cover.jpg

Видео
Идентификатор : 1
Формат : AVC
Формат/Информация : Advanced Video Codec
Профиль формата : [email protected]
Настройки формата : CABAC / 4 Ref Frames
Параметр CABAC формата : Да
Параметр RefFrames формата : 4 кадра
Идентификатор кодека : V_MPEG4/ISO/AVC
Продолжительность : 1 ч. 47 м.
Вид битрейта : Переменный
Битрейт : 31,7 Мбит/сек
Максимальный битрейт : 38,0 Мбит/сек
Ширина : 1920 пикселей
Высота : 1080 пикселей
Соотношение сторон : 16:9
Режим частоты кадров : Постоянный
Частота кадров : 23,976 (24000/1001) кадра/сек
Цветовое пространство : YUV
Субдискретизация насыщенности : 4:2:0
Битовая глубина : 8 бит
Тип развёртки : Прогрессивная
Бит/(Пиксели*Кадры) : 0.637
Размер потока : 23,8 Гбайт (98%)
Заголовок : Release for RuTracker
Язык : English
Default : Да
Forced : Нет

Аудио
Идентификатор : 2
Формат : DTS
Формат/Информация : Digital Theater Systems
Идентификатор кодека : A_DTS
Продолжительность : 1 ч. 47 м.
Вид битрейта : Постоянный
Битрейт : 768 Кбит/сек
Каналы : 6 каналов
Расположение каналов : Front: L C R, Side: L R, LFE
Частота : 48,0 КГц
Частота кадров : 93,750 кадра/сек (512 SPF)
Битовая глубина : 24 бит
Метод сжатия : С потерями
Размер потока : 590 Мбайт (2%)
Заголовок : DTS 5.1 @ 768 kbps - Дублированный, Blu-ray CEE
Язык : Russian
Default : Да
Forced : Нет

Текст
Идентификатор : 3
Формат : UTF-8
Идентификатор кодека : S_TEXT/UTF8
Идентификатор кодека/Информация : UTF-8 Plain Text
Продолжительность : 1 ч. 43 м.
Битрейт : 0 бит/сек
ElementCount : 20
Размер потока : 723 байт (0%)
Заголовок : forced
Язык : Russian
Default : Да
Forced : Нет

Меню
00:00:00.000 : en:2029 a.D./Main Title
00:03:32.253 : en:The Arrival
00:05:18.151 : en:New Wardrobe
00:06:31.015 : en:Second Visitor
00:11:38.322 : en:Hard-Working Girl
00:13:45.324 : en:Gun Men
00:15:11.827 : en:"Sarah Connor?"
00:20:44.618 : en:Phone Book Rampage
00:22:49.618 : en:Last One Left
00:29:49.787 : en:Uninvited Guest
00:33:15.034 : en:The Last Day of Disco
00:38:47.116 : en:Running Commentary
00:41:25.191 : en:The Possible Future
00:47:46.488 : en:"Drive!"
00:50:39.995 : en:Safety in Uniforms
00:54:41.569 : en:Self-Service
00:59:04.916 : en:I'll Be Back!"
01:03:53.538 : en:Mother of the Future
01:09:37.548 : en:The War to Come
01:14:08.986 : en:Answering Machine
01:15:00.078 : en:Not Mom
01:17:18.800 : en:Recipe for Disaster
01:18:30.372 : en:Present for the Future
01:23:00.892 : en:Hot Pursuit
01:26:24.721 : en:Run Over By a Truck
01:30:22.583 : en:Hunk O' Burning Steel
01:32:19.367 : en:Factory Foolery
01:35:52.121 : en:Head Without Heels
01:39:53.862 : en:Survivor
01:40:18.721 : en:Tapes for John
01:40:49.334 : en:A Storm Is Coming
01:43:12.895 : en:End Credits

pb.wtf



Скачать Терминатор через торрент https://pic1.kartinco.top/images/11/rvioz.jpg Скачать, смотреть онлайн Терминатор бесплантно в хорошем качестве Описание: История противостояния солдата Кайла Риза и киборга-терминатора, прибывших в 1984-й год из пост-апокалиптического будущего, где ... 10 10 7
Торрент: Зарегистрирован [2018-07-09 13:28] · скачан: 4 раз
Статус: √ проверено
Размер: 24.34 GB
Как cкачать? Как скачать Терминатор через торрент | UTorrent

% Раздел Тема Автор DL S | L
Фильмы с авторской озвучкой [ 1.46 GB ] Терминатор / The Terminator [1984 BDRip] 2x[AVO] killermax2013 Скачать
3 | 0
Фильмы [HD 720p, 1080p] (Хороший звук DUB, MVO) [ 6.25 GB ] Терминатор 3: Восстание машин / Terminator 3: Rise of the Machines [2003 BDRip 1080p HEVC ()] Мичман37 Скачать
1 | 0
Фильмы [HD 720p, 1080p] (Хороший звук DUB, MVO) [ 9.66 GB ] Терминатор / The Terminator [1984 BDRip 1080p HEVC ()] Мичман37 Скачать
1 | 0
Сборники и Сиквелы (48-60 fps) [ 18.7 GB ] Терминатор: Антология / The Terminator: Antology [1984-2015 BDRip-AVC 60fps MVO] от R.G. HD-Films Tiberiumsun69 Скачать
1 | 0
Зарубежные сериалы [ 19.12 GB ] Терминатор: Хроники Сары Коннор / Битва за будущее / Terminator: The Sarah Connor Chronicles / Сезон: 1-2 / Серии: 1-31 из 31 [2008-2009 BDRip] Dub [REN-TV] Serejechka Скачать
1 | 0
Комиксы [ 43 MB ] Зак Уидон - The Terminator 2029 / Терминатор 2029 [2010CBR] oldGAMERu Скачать
1 | 0
Фильмы до 2000 г. [ 1.45 GB ] Терминатор / The Terminator [1984 BDRip ] Бумер Скачать
1 | 0

28-11-2019 20:33  

Отключить всю рекламу на сайте

    Дорогой пользователь! Огромная просьба, поблагодарите релизера, оцените раздачу и оставьте свои комментарий, если Вы скачали Терминатор через торрент бесплатно!
    Комментировать посты могут только пользователи прошедшие не сложную регистрацию
    Показать сообщения:    

    Терминатор через торрент
    Скачать бесплатно Терминатор
    Терминатор скачать торрент
    Терминатор смотреть онлайн
    Cкачать фильм Терминатор бесплатно
    Терминатор скачать торрент в хорошем качестве
    Терминатор смотреть онлайн бесплатно в хорошем качестве


    Вы не можете начинать темы
    Вы не можете отвечать на сообщения
    Вы не можете редактировать свои сообщения
    Вы не можете удалять свои сообщения
    Вы не можете голосовать в опросах
    Вы не можете прикреплять файлы к сообщениям
    Вы можете скачивать файлы