Всегда рабочее зеркало без VPN и Proxy просто перед .vidak.icu напиши любое слово или цифру, Пример http://irbc.vidak.icu

MVO

MVO

1 сезон

1

1 сезон

iTunes

1 сезон

13

1 сезон

Deluxe

pack

Рекомендуем

Repack

30

ВАЖНО

RePack

MK11

RePack

jed

RePack

fifa19

RePack

RDR2

RePack

NEED FOR SPEED™ PAYBACK

Кинопоиск HD

6 сезон

 Острые козырьки 6 сезон

Все сериалы

все сериалы на PB.wtf

RePack

FAR CRY 5
  
Magnet ссылка

Садко (Максим Волков, Виталий Мухаметзянов) [2018, мультфильм, комедия, семейный, WEB-DLRip] [iTunes] pb.wtf

Садко через торрент pb.wtf

Размер: 1.46 GB | Добавлен: 4 года назад | Торрент скачан:630 раз
Смотреть онлайн Садко | Скачать    Ребята, помогите собрать деньги на оплату серверов!!!

10-07-2018 20:48 Садко Скачать торрент  

Садко
Год выпуска: 2018
Страна: Россия
Жанр: мультфильм, комедия, семейный
Продолжительность: 01:17:50
Перевод: Не требуется | iTunes
Субтитры: отсутствуют

Режиссер: Максим Волков, Виталий Мухаметзянов



В ролях:

Мария Шалаева, Любовь Аксенова, Михаил Ефремов, Екатерина Варнава

Описание:

Хоть беги, хоть не беги, а от любви нигде не скрыться. Ни в палатах новгородского князя, ни на дне морском. Особенно, если зовут тебя Садко, и ты симпатичный веселый парень. К тому же, на гуслях играть мастак. Вот только за настоящую любовь еще и повоевать придется. Да не с кем-нибудь, а с подводной ведьмой Барракудой. Но любовь все равно победит. Вот увидите!

Качество: WEB-DLRip
Формат: AVI

Видео: XviD, 2283 Кбит/с, 720x304
Аудио: Русский (AC3, 6 ch, 384 Кбит/с)
скриншот   скриншот   скриншот  скриншот  скриншот  

Формат : AVI
Формат/Информация : Audio Video Interleave
Размер файла : 1,46 Гбайт
Продолжительность : 1 ч. 17 м.
Общий поток : 2677 Кбит/сек
Программа кодирования : VirtualDubMod 1.5.10.3 | www.virtualdub-fr.org || (build 2550/release)
Библиотека кодирования : VirtualDubMod build 2550/release

Видео
Идентификатор : 0
Формат : MPEG-4 Visual
Профиль формата : Advanced [email protected]
Настройки формата : BVOP1 / Custom Matrix
Параметр BVOP формата : 1
Параметр QPel формата : Нет
Параметр GMC формата : Без точки перехода
Параметр матрицы формата : Выборочная
Идентификатор кодека : XVID
Идентификатор кодека/Подсказка : XviD
Продолжительность : 1 ч. 17 м.
Битрейт : 2283 Кбит/сек
Ширина : 720 пикселей
Высота : 304 пикселя
Соотношение сторон : 2,35:1
Частота кадров : 25,000 кадров/сек
Цветовое пространство : YUV
Субдискретизация насыщенности : 4:2:0
Битовая глубина : 8 бит
Тип развёртки : Прогрессивная
Метод сжатия : С потерями
Бит/(Пиксели*Кадры) : 0.417
Размер потока : 1,24 Гбайт (85%)
Библиотека кодирования : XviD 73

Аудио
Идентификатор : 1
Формат : AC-3
Формат/Информация : Audio Coding 3
Идентификатор кодека : 2000
Продолжительность : 1 ч. 17 м.
Вид битрейта : Постоянный
Битрейт : 384 Кбит/сек
Каналы : 6 каналов
Расположение каналов : Front: L C R, Side: L R, LFE
Частота : 48,0 КГц
Частота кадров : 31,250 кадров/сек (1536 SPF)
Битовая глубина : 16 бит
Метод сжатия : С потерями
Размер потока : 214 Мбайт (14%)
Выравнивание : Разделение по промежуткам
Продолжительность промежутка : 40 мс. (1,00 видеокадр)
Время предзагрузки промежутка : 500 мс.
ServiceKind/String : Complete Main
pb.wtf



Скачать Садко через торрент http://img12.lostpic.net/2018/05/26/c0d4f1d29a1cd2da098dc8bb57986b0e.jpg Скачать, смотреть онлайн Садко бесплантно в хорошем качестве Описание: Хоть беги, хоть не беги, а от любви нигде не скрыться. Ни в палатах новгородского князя, ни на дне морском. Особенно, если зовут ... 10 10 16
Торрент: Зарегистрирован [2018-07-10 20:48] · скачан: 630 раз
Статус: √ проверено
Размер: 1.46 GB
Как cкачать? Как скачать Садко через торрент | UTorrent

% Раздел Тема Автор DL S | L
Наши Мультфильмы (HD, WEB-DL 720p, 1080p) [ 2.47 GB ] Садко [2018 мультфильм WEB-DL 720p] bober100 Скачать
1 | 0
Наши Мультфильмы (HD, WEB-DL 720p, 1080p) [ 2.73 GB ] Садко [2018 мультфильм WEB-DL 1080p] RUS ussr Скачать
1 | 0
Кино СССР [ 1.46 GB ] Садко [1952 СССР сказка DVDRip-AVC от AVP Studio] AVP Studio Скачать
1 | 0
Кино СССР [ 744 MB ] Садко [1952 СССР сказка DVDRip от AVP Studio] AVP Studio Скачать
1 | 0
Кино СССР [ 1.46 GB ] Садко [1952 СССР сказка DVDRip от AVP Studio] AVP Studio Скачать
1 | 0
Детские отечественные фильмы [ 1.46 GB ] Садко [1952 сказка DVDRip] VORLKED Скачать
1 | 0

28-11-2019 20:33  

Отключить вcю реклaмy на сайте

    Дорогой пользователь! Огромная просьба, поблагодарите релизера, оцените раздачу и оставьте свои комментарий, если Вы скачали Садко через торрент бесплатно!
    Комментировать посты могут только пользователи прошедшие не сложную регистрацию
    Показать сообщения:    

    Садко через торрент
    Скачать бесплатно Садко
    Садко скачать торрент
    Садко смотреть онлайн
    Cкачать фильм Садко бесплатно
    Садко скачать торрент в хорошем качестве
    Садко смотреть онлайн бесплатно в хорошем качестве


    Вы не можете начинать темы
    Вы не можете отвечать на сообщения
    Вы не можете редактировать свои сообщения
    Вы не можете удалять свои сообщения
    Вы не можете голосовать в опросах
    Вы не можете прикреплять файлы к сообщениям
    Вы можете скачивать файлы