Всегда рабочее зеркало без VPN и Proxy просто перед .vidak.icu напиши любое слово или цифру, Пример http://scdr.vidak.icu

MVO

2 сезон

2 сезон

1

1 сезон

iTunes

2 сезон

13

1 сезон

Распродажа

pack

Рекомендуем

Пиратка

30

ВАЖНО

RePack

MK11

RePack

jed

RePack

fifa19

RePack

RDR2

RePack

NEED FOR SPEED™ PAYBACK

Кинопоиск HD

6 сезон

 Острые козырьки 6 сезон

Все сериалы

все сериалы на PB.wtf

RePack

FAR CRY 5

Anonymous, нам критически не хватает 5601 руб. на оплату серверов и переферии за Апрель, помоги нам пожалуйста, вся надежда только на тебя. В благодарность мы отключим тебе всю рекламу на сайте!

×
  
Magnet ссылка

Это убийство, моя милочка / Murder, My Sweet (Эдвард Дмитрик) [1944, фильм-нуар, триллер, драма, криминал, детектив, BDRip 720p by msltel] 2 x AVO pb.wtf

Это убийство, моя милочка через торрент pb.wtf

Размер: 4 GB | Добавлен: 3 года 9 мес. назад | Торрент скачан:1 раз
Смотреть онлайн Это убийство, моя милочка | Скачать    Ребята, помогите собрать деньги на оплату серверов!!!

29-07-2018 09:46 Это убийство, моя милочка Скачать торрент  

Название: Это убийство, моя милочка
Оригинальное название: Murder, My Sweet
Год выпуска: 1944
Страна: США
Жанр: фильм-нуар, триллер, драма, криминал, детектив
Продолжительность: 01:35:26
Перевод: авторский

Режиссер: Эдвард Дмитрик
В ролях: Дик Пауэлл, Клер Тревор, Энн Ширли, Отто Крюгер, Майк Мазурки, Майлз Мандер, Дуглас Уолтон, Дональд Дуглас, Ральф Харольд, Эстер Ховард, Эрни Адамс, Бернисе Ахи, Джордж Андерсон, Джек Карр, Ральф Данн, Фред Грэхэм, Билл Хэмилтон

О фильме: Частного сыщика Филипа Марлоу нанимает недавно вышедший из тюрьмы субчик, чтобы тот нашёл его бывшую подружку Велму, которая исчезла несколько лет назад. Естественно, тривиальными розысками пропавшей девицы дело не ограничивается... Фильм поставлен по роману Рэймонда Чандлера 1940 года «Прощай, любимая» (англ. Farewell, My Lovely).



Качество: BDRip 720p
Формат: MKV
Видео: MPEG-4 AVC, 5424 Кбит/с, 984x720, 23.976 кадр/с
Аудио 1: русский, AC3, 192 kbps, 2 ch, 48 kHz [авторский, Сергей Кузнецов]
Аудио 2: русский, AC3, 192 kbps, 2 ch, 48 kHz [авторский, Алексей Медведев]
Аудио 3: английский, AC3, 192 kbps, 2 ch, 48 kHz [оригинал]
Субтитры 1: русские
Субтитры 2: английские
Главы/чаптеры
Общее
Уникальный идентификатор : 214696814328820759075293168586376861365 (0xA1851A34CAC19AD19A18F82834F7D6B5)
Полное имя : D:\Video\Это убийство, моя милочка.1944.BDRip.720p by msltel.mkv
Формат : Matroska
Версия формата : Version 4 / Version 2
Размер файла : 4,00 Гбайт
Продолжительность : 1 ч. 35 м.
Общий поток : 6002 Кбит/сек
Название фильма : Rip by msltel
Дата кодирования : UTC 2018-07-29 08:37:50
Программа кодирования : mkvmerge v8.2.0 ('World of Adventure') 64bit
Библиотека кодирования : libebml v1.3.1 + libmatroska v1.4.2

Видео
Идентификатор : 1
Формат : AVC
Формат/Информация : Advanced Video Codec
Профиль формата : High@L4.1
Настройки формата : CABAC / 9 Ref Frames
Параметр CABAC формата : Да
Параметр RefFrames формата : 9 кадров
Идентификатор кодека : V_MPEG4/ISO/AVC
Продолжительность : 1 ч. 35 м.
Битрейт : 5424 Кбит/сек
Ширина : 984 пикселя
Высота : 720 пикселей
Соотношение сторон : 4:3
Режим частоты кадров : Постоянный
Частота кадров : 23,976 (24000/1001) кадра/сек
Цветовое пространство : YUV
Субдискретизация насыщенности : 4:2:0
Битовая глубина : 8 бит
Тип развёртки : Прогрессивная
Бит/(Пиксели*Кадры) : 0.319
Размер потока : 3,62 Гбайт (90%)
Библиотека кодирования : x264 core 146 r2538 121396c
Настройки программы : cabac=1 / ref=9 / deblock=1:-3:-2 / analyse=0x3:0x113 / me=umh / subme=11 / psy=1 / psy_rd=1.00:0.15 / mixed_ref=1 / me_range=32 / chroma_me=1 / trellis=2 / 8x8dct=1 / cqm=0 / deadzone=21,11 / fast_pskip=0 / chroma_qp_offset=-3 / threads=6 / lookahead_threads=1 / sliced_threads=0 / nr=0 / decimate=1 / interlaced=0 / bluray_compat=0 / constrained_intra=0 / bframes=9 / b_pyramid=2 / b_adapt=2 / b_bias=0 / direct=1 / weightb=1 / open_gop=0 / weightp=2 / keyint=230 / keyint_min=23 / scenecut=40 / intra_refresh=0 / rc_lookahead=40 / rc=crf / mbtree=0 / crf=21.0 / qcomp=0.60 / qpmin=0 / qpmax=69 / qpstep=4 / vbv_maxrate=62500 / vbv_bufsize=78125 / crf_max=0.0 / nal_hrd=none / filler=0 / ip_ratio=1.40 / pb_ratio=1.30 / aq=1:1.00
Язык : English
Default : Да
Forced : Нет

Аудио #1
Идентификатор : 2
Формат : AC-3
Формат/Информация : Audio Coding 3
Идентификатор кодека : A_AC3
Продолжительность : 1 ч. 35 м.
Вид битрейта : Постоянный
Битрейт : 192 Кбит/сек
Каналы : 2 канала
Расположение каналов : Front: L R
Частота : 48,0 КГц
Частота кадров : 31,250 кадров/сек (1536 SPF)
Битовая глубина : 16 бит
Метод сжатия : С потерями
Размер потока : 131 Мбайт (3%)
Заголовок : Сергей Кузнецов
Язык : Russian
ServiceKind/String : Complete Main
Default : Да
Forced : Нет

Аудио #2
Идентификатор : 3
Формат : AC-3
Формат/Информация : Audio Coding 3
Идентификатор кодека : A_AC3
Продолжительность : 1 ч. 35 м.
Вид битрейта : Постоянный
Битрейт : 192 Кбит/сек
Каналы : 2 канала
Расположение каналов : Front: L R
Частота : 48,0 КГц
Частота кадров : 31,250 кадров/сек (1536 SPF)
Битовая глубина : 16 бит
Метод сжатия : С потерями
Размер потока : 131 Мбайт (3%)
Заголовок : Алексей Медведев
Язык : Russian
ServiceKind/String : Complete Main
Default : Нет
Forced : Нет

Аудио #3
Идентификатор : 4
Формат : AC-3
Формат/Информация : Audio Coding 3
Идентификатор кодека : A_AC3
Продолжительность : 1 ч. 35 м.
Вид битрейта : Постоянный
Битрейт : 192 Кбит/сек
Каналы : 2 канала
Расположение каналов : Front: L R
Частота : 48,0 КГц
Частота кадров : 31,250 кадров/сек (1536 SPF)
Битовая глубина : 16 бит
Метод сжатия : С потерями
Размер потока : 131 Мбайт (3%)
Заголовок : original
Язык : English
ServiceKind/String : Complete Main
Default : Нет
Forced : Нет

Текст #1
Идентификатор : 5
Формат : UTF-8
Идентификатор кодека : S_TEXT/UTF8
Идентификатор кодека/Информация : UTF-8 Plain Text
Продолжительность : 1 ч. 34 м.
Битрейт : 129 бит/сек
ElementCount : 1285
Размер потока : 89,9 Кбайт (0%)
Заголовок : русские
Язык : Russian
Default : Нет
Forced : Нет

Текст #2
Идентификатор : 6
Формат : UTF-8
Идентификатор кодека : S_TEXT/UTF8
Идентификатор кодека/Информация : UTF-8 Plain Text
Продолжительность : 1 ч. 33 м.
Битрейт : 80 бит/сек
ElementCount : 1274
Размер потока : 55,1 Кбайт (0%)
Заголовок : английские
Язык : English
Default : Нет
Forced : Нет

Меню
00:00:00.000 : en:01. Third-Degree Credits
00:02:33.153 : en:02. Hired by Moose
00:05:36.628 : en:03. Flap at Florian's
00:08:38.476 : en:04. Jessie's Place
00:13:09.497 : en:05. Marriot's Rendezvous
00:17:10.947 : en:06. Phantoms in the Dark
00:20:32.940 : en:07. Watch Your Step
00:22:42.278 : en:08. Lady with an Interest
00:25:51.884 : en:09. Mrs. Grayle's Trust
00:33:00.979 : en:10. Competing Offers
00:37:02.512 : en:11. Old Psychological Tricks
00:41:33.658 : en:12. Stranglehold
00:45:21.677 : en:13. Crazy Coked-up Dream
00:50:05.461 : en:14. Against Doctor's Orders
00:55:19.233 : en:15. Take My Friend
00:57:38.205 : en:16. Protective Daughter
01:01:10.458 : en:17. Which Side Anybody's On
01:04:39.667 : en:18. His Desirable Wife
01:09:21.741 : en:19. Pretty Good Guesser
01:12:19.335 : en:20. Helen's Request
01:18:40.633 : en:21. Visited by Moose
01:22:21.436 : en:22. Femme Fatale
01:26:29.601 : en:23. Couple of Mugs
01:30:03.189 : en:24. Couldn't Let Her Go
01:31:50.463 : en:25. Her Kind of Face
pb.wtf



Скачать Это убийство, моя милочка через торрент https://b.radikal.ru/b21/1807/55/ae6b37f16fc6.jpg Скачать, смотреть онлайн Это убийство, моя милочка бесплантно в хорошем качестве О фильме: Частного сыщика Филипа Марлоу нанимает недавно вышедший из тюрьмы субчик, чтобы тот нашёл его бывшую подружку Велму, которая ... 5 10 1
Info! Золотая раздача, скачанное не засчитывается.
Торрент: Зарегистрирован [2018-07-29 09:46] · скачан: 1 раз
Статус: √ проверено
Размер: 4 GB
Как cкачать? Как скачать Это убийство, моя милочка через торрент | UTorrent

% Раздел Тема Автор DL S | L
Фильмы с авторской озвучкой [ 10.1 GB ] Это убийство моя милочка / Murder My Sweet [1944 фильм-нуар BDRip 1080p by msltel] 2 x AVO msltel Скачать
1 | 0

28-11-2019 20:33  

Отключить всю рекламу на сайте

    Дорогой пользователь! Огромная просьба, поблагодарите релизера, оцените раздачу и оставьте свои комментарий, если Вы скачали Это убийство, моя милочка через торрент бесплатно!
    Комментировать посты могут только пользователи прошедшие не сложную регистрацию
    Показать сообщения:    

    Это убийство, моя милочка через торрент
    Скачать бесплатно Это убийство, моя милочка
    Это убийство, моя милочка скачать торрент
    Это убийство, моя милочка смотреть онлайн
    Cкачать фильм Это убийство, моя милочка бесплатно
    Это убийство, моя милочка скачать торрент в хорошем качестве
    Это убийство, моя милочка смотреть онлайн бесплатно в хорошем качестве


    Вы не можете начинать темы
    Вы не можете отвечать на сообщения
    Вы не можете редактировать свои сообщения
    Вы не можете удалять свои сообщения
    Вы не можете голосовать в опросах
    Вы не можете прикреплять файлы к сообщениям
    Вы можете скачивать файлы