Всегда рабочее зеркало без VPN и Proxy просто перед .vidak.icu напиши любое слово или цифру, Пример http://4nkh.vidak.icu

MVO

Лицензия

1 сезон

1

1 сезон

iTunes

1 сезон

13

1 сезон

Deluxe

pack

Рекомендуем

Repack

30

ВАЖНО

RePack

MK11

RePack

jed

RePack

fifa19

RePack

RDR2

RePack

NEED FOR SPEED™ PAYBACK

Кинопоиск HD

6 сезон

 Острые козырьки 6 сезон

Все сериалы

все сериалы на PB.wtf

RePack

FAR CRY 5
  
Magnet ссылка

Стрингер / Nightcrawler (Дэн Гилрой) [2014 г., Триллер, Драма, Криминал, BDRip 1080p, HEVC, Профессиональный (многоголосый)] pb.wtf

Стрингер через торрент pb.wtf

Размер: 5.12 GB | Добавлен: 3 года 10 мес. назад | Торрент скачан:128 раз
Смотреть онлайн Стрингер | Скачать    Ребята, помогите собрать деньги на оплату серверов!!!

07-08-2018 06:45 Стрингер Скачать торрент  

Стрингер / Nightcrawler
Год выпуска: 2014
Страна: США
Жанр: Триллер, Драма, Криминал
Продолжительность: 01:58:05
Перевод: Профессиональный (многоголосый)
Субтитры: Русские, английские

Режиссер: Дэн Гилрой

rating

В ролях: Джейк Джилленхол, Рене Руссо, Риз Ахмед, Билл Пэкстон, Майкл Пападжон, Марко Родригес, Джеймс Хуанг, Кент Шокнек, Пэт Харви, Шэрон Тэй

Описание: Луи Блум пытается найти работу. После того как он видит, как любительская съемочная группа снимает автомобильную аварию, он меняет ворованный велосипед на камеру и снимает последствия угона автомобиля, чтобы продать местной телевизионной компании. Директор новостей Нина покупает запись и убеждает его продолжить работу. Вскоре становится ясно, что ради по-настоящему стоящего материала Луи не остановится ни перед чем…
Доп. информация: -
H.265/HEVC (High Efficiency Video Coding) - это новый стандарт кодирования видео.
- Стандарт H.265/HEVC является логическим продолжением стандарта
H.264/AVC (Advanced Video Coding), и характеризуется более эффективными
алгоритмами сжатия, а также поддержкой высокого разрешения вплоть до 8K UHD
(8192x4320). Первая версия стандарта H.265 была опубликована в начале 2013 года.
- Рипы в фомате HEVC поддерживается не всеми аппаратными проигрывателями.
- Для корректного воспроизведения может потребоваться обновление ПО.
- Владельцам несовместимого железа просьба не беспокоить,
есть альтернативные релизы.
Качество: BDRip 1080p
Формат: MKV
Видео кодек: H.265
Аудио кодек: AC3
Видео: 1920x800, 5441 Kbps
Аудио#1: AC3, 6 ch, 384 Kbps - Русский, MVO (Омикрон)
Аудио#2: AC3, 6 ch, 384 Kbps - Оригинал
Релиз от: Мичман
Общее
Уникальный идентификатор : 253493738539795621493507809024232849235 (0xBEB51E40D6792E6DAD6943224FD6FF53)
Полное имя : J:\ФИЛЬМЫ\Стрингер. 2014. 1080р. HEVC..mkv
Формат : Matroska
Версия формата : Version 4 / Version 2
Размер файла : 5,12 Гбайт
Продолжительность : 1 ч. 58 м.
Общий поток : 6212 Кбит/сек
Дата кодирования : UTC 2017-07-02 10:17:35
Программа кодирования : mkvmerge v12.0.0 ('Trust / Lust') 64bit
Библиотека кодирования : libebml v1.3.4 + libmatroska v1.4.5
Обложка : Yes
Attachments : cover.jpg

Видео
Идентификатор : 5
Формат : HEVC
Формат/Информация : High Efficiency Video Coding
Профиль формата : [email protected]@Main
Идентификатор кодека : V_MPEGH/ISO/HEVC
Продолжительность : 1 ч. 58 м.
Битрейт : 5441 Кбит/сек
Ширина : 1920 пикселей
Высота : 800 пикселей
Соотношение сторон : 2,40:1
Режим частоты кадров : Постоянный
Частота кадров : 23,976 (24000/1001) кадра/сек
Цветовое пространство : YUV
Субдискретизация насыщенности : 4:2:0
Битовая глубина : 8 бит
Бит/(Пиксели*Кадры) : 0.148
Размер потока : 4,49 Гбайт (88%)
Язык : English
Default : Да
Forced : Нет
Цветовой диапазон : Full

Аудио #1
Идентификатор : 3
Формат : AC-3
Формат/Информация : Audio Coding 3
Идентификатор кодека : A_AC3
Продолжительность : 1 ч. 58 м.
Вид битрейта : Постоянный
Битрейт : 384 Кбит/сек
Каналы : 6 каналов
Расположение каналов : Front: L C R, Side: L R, LFE
Частота : 48,0 КГц
Частота кадров : 31,250 кадров/сек (1536 SPF)
Битовая глубина : 16 бит
Метод сжатия : С потерями
Размер потока : 324 Мбайт (6%)
ServiceKind/String : Complete Main
Default : Да
Forced : Нет

Аудио #2
Идентификатор : 4
Формат : AC-3
Формат/Информация : Audio Coding 3
Идентификатор кодека : A_AC3
Продолжительность : 1 ч. 58 м.
Вид битрейта : Постоянный
Битрейт : 384 Кбит/сек
Каналы : 6 каналов
Расположение каналов : Front: L C R, Side: L R, LFE
Частота : 48,0 КГц
Частота кадров : 31,250 кадров/сек (1536 SPF)
Битовая глубина : 16 бит
Метод сжатия : С потерями
Размер потока : 324 Мбайт (6%)
ServiceKind/String : Complete Main
Default : Нет
Forced : Нет

Текст #1
Идентификатор : 1
Формат : UTF-8
Идентификатор кодека : S_TEXT/UTF8
Идентификатор кодека/Информация : UTF-8 Plain Text
Продолжительность : 1 ч. 50 м.
Битрейт : 77 бит/сек
ElementCount : 1932
Размер потока : 62,9 Кбайт (0%)
Default : Да
Forced : Нет

Текст #2
Идентификатор : 2
Формат : UTF-8
Идентификатор кодека : S_TEXT/UTF8
Идентификатор кодека/Информация : UTF-8 Plain Text
Продолжительность : 1 ч. 52 м.
Битрейт : 125 бит/сек
ElementCount : 1466
Размер потока : 104 Кбайт (0%)
Default : Нет
Forced : Нет

pb.wtf



Скачать Стрингер через торрент https://c.radikal.ru/c28/1808/7e/98e8a2dab8c5.jpg Скачать, смотреть онлайн Стрингер бесплантно в хорошем качестве Описание: Луи Блум пытается найти работу. После того как он видит, как любительская съемочная группа снимает автомобильную аварию, он ... 10 10 2
Торрент: Зарегистрирован [2018-08-07 06:45] · скачан: 128 раз
Статус: √ проверено
Размер: 5.12 GB
Как cкачать? Как скачать Стрингер через торрент | UTorrent

% Раздел Тема Автор DL S | L
Фильмы 2014 [DVDrip, WEB-DLRip, HDrip] [ 1.47 GB ] Стрингер / Nightcrawler [2014 BDRip] MVO [] Twi7ter Скачать
1 | 0
Фильмы [HD 720p, 1080p] (Хороший звук DUB, MVO) [ 8.35 GB ] Стрингер / Nightcrawler [2014 BDRip 720p MVO] + ENG GEKADOL Скачать
1 | 0
Фильмы (Blu-ray, BD-Remux, HDDVD) [ 38.81 GB ] Стрингер / Nightcrawler [2014 Blu-ray 1080p / Custom] / MVO 3 x AVO Russian Mafia Скачать
1 | 0
Фильмы 2014 [DVDrip, WEB-DLRip, HDrip] [ 2.21 GB ] Стрингер / Nightcrawler [2014 HDRip многоголосый закадровый ""] coc900 Скачать
1 | 0
Фильмы [HD 720p, 1080p] (Хороший звук DUB, MVO) [ 11.99 GB ] Стрингер / Nightcrawler [2014 BDRip 1080p MVO] + ENG GEKADOL Скачать
1 | 0
Фильмы 2014 [DVDrip, WEB-DLRip, HDrip] [ 1.46 GB ] Стрингер / Nightcrawler [2014 BDRip многоголосый Twi7ter Скачать
1 | 0
Фильмы [HD 720p, 1080p] (Хороший звук DUB, MVO) [ 7.96 GB ] Стрингер / Nightcrawler [2014 BDRip 720p] MVO 3xAVO _denis_100 Скачать
1 | 0

28-11-2019 20:33  

Отключить всю рекламу на сайте

    Дорогой пользователь! Огромная просьба, поблагодарите релизера, оцените раздачу и оставьте свои комментарий, если Вы скачали Стрингер через торрент бесплатно!
    Комментировать посты могут только пользователи прошедшие не сложную регистрацию
    Показать сообщения:    

    Стрингер через торрент
    Скачать бесплатно Стрингер
    Стрингер скачать торрент
    Стрингер смотреть онлайн
    Cкачать фильм Стрингер бесплатно
    Стрингер скачать торрент в хорошем качестве
    Стрингер смотреть онлайн бесплатно в хорошем качестве


    Вы не можете начинать темы
    Вы не можете отвечать на сообщения
    Вы не можете редактировать свои сообщения
    Вы не можете удалять свои сообщения
    Вы не можете голосовать в опросах
    Вы не можете прикреплять файлы к сообщениям
    Вы можете скачивать файлы