Мега распродажа FORZA HORIZON 4 ULTIMATE+ВСЕ DLC+ОНЛАЙН всего за 499р. 349 руб. (супер цена). Внимание количество ограничено!!!

Лицензия

30

iTunes

мы

iTunes

1

1 сезон

Чернобыль

1 сезон

Ральф против интернета

MVO

Покемон. Детектив Пикачу

8 сезон

Игра престолов

iTunes

1+1

ИГРА 18+

pack

ВАЖНО

!!Акция!!

Alien_RageХит недели

RePack

Resident Evil 21
pack

RePack

Metro:Exodus

!!Акция!!

Alien_Rage

RePack

fifa19

RePack

Assassins Creed: Odyssey

RePack

NEED FOR SPEED™ PAYBACK

3 сезон

9 сезон

Бесстыжие 9 сезон

Все сериалы

все сериалы на PB.wtf

RePack

FAR CRY 5
Ребята, катастрофически не хватает 2730р. для оплаты серверов за МАЙ (всвязи с блокировками трафик упал в 3 раза), 1-2р., выручайте.
  

Дэдпул 2 / Deadpool 2 (Дэвид Литч) [2018, фантастика, боевик, комедия, приключения, HDRip-AVC] [Super Duper Cut UNRATED] [SUB] - ExKinoRay pb.wtf

Дэдпул 2 через торрент pb.wtf

Раздают: 1 [ 0 KB/s ]
Размер: 2.35 GB | Добавлен: 4 мес. 22 д. назад | Торрент скачан:29 раз
Скачать  

11-08-2018 05:05 Дэдпул 2 Скачать торрент  

Информация о фильме
Название: Дэдпул 2
Оригинальное название: Deadpool 2
Год выпуска: 2018
Жанр: Фантастика, боевик, комедия, приключения
Режиссер: Дэвид Литч
В ролях: Джош Бролин, Райан Рейнольдс, Морена Баккарин, Зази Битц, Брианна Хилдебранд, Брэд Питт, Билл Скарсгард, ТиДжей Миллер, Терри Крюс, Роб Делани

Описание:
Единственный и неповторимый болтливый наемник — вернулся! Ещё более масштабный, ещё более разрушительный и даже ещё более голозадый, чем прежде! Когда в его жизнь врывается суперсолдат с убийственной миссией, Дэдпул вынужден задуматься о дружбе, семье и о том, что на самом деле значит быть героем, попутно надирая 50 оттенков задниц. Потому что иногда чтобы делать хорошие вещи, нужно использовать грязные приёмчики.

rating

Страна: США
Студия: Donners' Company, Kinberg Genre, Marvel Entertainmen
Продолжительность: 02:13:59
Перевод: Субтитры русские

Формат: MKV
Качество: НDRip-AVC
Видео: MPEG-4 AVC, 1024x428 (2.40:1), 23.976 fps, 2062 Kbps, 0.196 bit/pixel
Аудио: Английский (48 kHz, AC3, 5/1, 448 Kbps)
Субтитры: Русские (полные), английские
General
Unique ID : 202531664619489845065275581801441350504 (0x985E2E049A35F90591C3FF0F0CFD5368)
Complete name : D:\Deadpool.2.2018.Super.Duper.Cut.UNRATED.HDRip.AVC.ExKinoRay.mkv
Format : Matroska
Format version : Version 2
File size : 2.35 GiB
Duration : 2 h 13 min
Overall bit rate : 2 512 kb/s
Movie name : Deadpool 2 2018 Super Duper Cut from ExKinoRay
Encoded date : UTC 2018-08-11 02:41:30
Writing application : mkvmerge v5.6.0 ('Kenya Kane') built on May 27 2012 16:44:04
Writing library : libebml v1.2.3 + libmatroska v1.3.0

Video
ID : 1
Format : AVC
Format/Info : Advanced Video Codec
Format profile : High@L4.1
Format settings, CABAC : Yes
Format settings, ReFrames : 12 frames
Codec ID : V_MPEG4/ISO/AVC
Duration : 2 h 13 min
Bit rate : 2 062 kb/s
Width : 1 024 pixels
Height : 428 pixels
Display aspect ratio : 2.40:1
Frame rate mode : Constant
Frame rate : 23.976 (24000/1001) FPS
Color space : YUV
Chroma subsampling : 4:2:0
Bit depth : 8 bits
Scan type : Progressive
Bits/(Pixel*Frame) : 0.196
Stream size : 1.88 GiB (80%)
Title : Enigma
Writing library : x264 core 148 r2638 7599210
Encoding settings : cabac=1 / ref=12 / deblock=1:-2:-2 / analyse=0x3:0x113 / me=umh / subme=11 / psy=1 / psy_rd=1.05:0.10 / mixed_ref=1 / me_range=32 / chroma_me=1 / trellis=2 / 8x8dct=1 / cqm=0 / deadzone=21,11 / fast_pskip=0 / chroma_qp_offset=-3 / threads=12 / lookahead_threads=3 / sliced_threads=0 / nr=0 / decimate=1 / interlaced=0 / bluray_compat=0 / constrained_intra=0 / bframes=12 / b_pyramid=2 / b_adapt=2 / b_bias=0 / direct=3 / weightb=1 / open_gop=0 / weightp=2 / keyint=240 / keyint_min=23 / scenecut=40 / intra_refresh=0 / rc_lookahead=40 / rc=2pass / mbtree=0 / bitrate=2062 / ratetol=1.0 / qcomp=0.60 / qpmin=0 / qpmax=51 / qpstep=4 / cplxblur=20.0 / qblur=0.5 / vbv_maxrate=50000 / vbv_bufsize=62500 / nal_hrd=none / filler=0 / ip_ratio=1.30 / pb_ratio=1.20 / aq=2:0.90
Default : Yes
Forced : No
Color range : Limited
Color primaries : BT.709
Transfer characteristics : BT.709
Matrix coefficients : BT.709

Audio
ID : 2
Format : AC-3
Format/Info : Audio Coding 3
Mode extension : CM (complete main)
Format settings, Endianness : Big
Codec ID : A_AC3
Duration : 2 h 13 min
Bit rate mode : Constant
Bit rate : 448 kb/s
Channel(s) : 6 channels
Channel positions : Front: L C R, Side: L R, LFE
Sampling rate : 48.0 kHz
Frame rate : 31.250 FPS (1536 spf)
Compression mode : Lossy
Stream size : 429 MiB (18%)
Language : English
Default : Yes
Forced : No

Text #1
ID : 3
Format : UTF-8
Codec ID : S_TEXT/UTF8
Codec ID/Info : UTF-8 Plain Text
Title : Full
Language : Russian
Default : Yes
Forced : No

Text #2
ID : 4
Format : UTF-8
Codec ID : S_TEXT/UTF8
Codec ID/Info : UTF-8 Plain Text
Language : English
Default : No
Forced : No

Menu
00:00:00.000 : en:00:00:00.000
00:02:31.693 : en:00:02:31.693
00:07:55.517 : en:00:07:55.517
00:10:46.229 : en:00:10:46.229
00:14:21.194 : en:00:14:21.194
00:17:42.937 : en:00:17:42.937
00:19:10.775 : en:00:19:10.775
00:24:14.370 : en:00:24:14.370
00:27:11.630 : en:00:27:11.630
00:37:17.444 : en:00:37:17.444
00:42:11.821 : en:00:42:11.821
00:44:40.428 : en:00:44:40.428
00:49:30.926 : en:00:49:30.926
00:52:20.471 : en:00:52:20.471
00:56:47.613 : en:00:56:47.613
01:01:00.073 : en:01:01:00.073
01:04:47.050 : en:01:04:47.050
01:07:22.997 : en:01:07:22.997
01:09:45.098 : en:01:09:45.098
01:11:45.426 : en:01:11:45.426
01:15:21.016 : en:01:15:21.016
01:19:19.213 : en:01:19:19.213
01:21:00.189 : en:01:21:00.189
01:24:49.543 : en:01:24:49.543
01:29:10.845 : en:01:29:10.845
01:32:30.420 : en:01:32:30.420
01:36:11.391 : en:01:36:11.391
01:38:18.851 : en:01:38:18.851
01:42:06.329 : en:01:42:06.329
01:44:18.711 : en:01:44:18.711
01:46:03.774 : en:01:46:03.774
01:48:06.730 : en:01:48:06.730
01:51:31.977 : en:01:51:31.977
01:55:05.398 : en:01:55:05.398
01:58:16.047 : en:01:58:16.047
02:02:04.317 : en:Medusa @ HDChina
Релиз от:

Автор релиза: pb.wtf



Скачать Дэдпул 2 через торрент https://c.radikal.ru/c37/1808/fb/1001803b8a19.png Скачать фильм Дэдпул 2 через торрент бесплантно в хорошем качестве Описание: Единственный и неповторимый болтливый наемник — вернулся! Ещё более масштабный, ещё более разрушительный и даже ещё более ... 10 10 5
Торрент: Зарегистрирован [2019-02-04 12:28] · скачан: 29 раз
Статус: √ проверено
Размер: 2.35 GB
Как cкачать? Как скачать Дэдпул 2 через торрент | qTorrent

% Раздел Тема Автор DL S | L
Фильмы 2018 [DVDrip, WEB-DLRip, HDrip] (DUB, MVO) [ 2.77 GB ] Дэдпул 2 / Deadpool 2 [2018 HDRip-AVC] [Super Duper Cut UNRATED] - ExKinoRay Enigma2010 Скачать
4 | 0


>> Регистрируемся здесь <<






Отзывы и комментарии о схеме читаем и пишем здесь: ---> Отзывы и комментарии о схеме

Новые благодарочки в телеграм довольных пользователей:
скриншот   скриншот   скриншот   скриншот   скриншот

11-08-2018 09:47 Дэдпул 2 Скачать торрент  

чьи субтитры ? часом не гугелтранслейт ?pb.wtf



    Дорогой пользователь! Огромная просьба, поблагодарите релизера, оцените раздачу и оставьте свои комментарий, если Вы скачали Дэдпул 2 через торрент бесплатно! Внесите свою лепту в развитие PiratBit!
    Комментировать посты могут только пользователи прошедшие не сложную регистрацию
    Показать сообщения:    

    Дэдпул 2 через торрент
    Скачать бесплатно Дэдпул 2
    Дэдпул 2 скачать торрент
    Дэдпул 2 смотреть онлайн
    Cкачать фильм Дэдпул 2 бесплатно
    Дэдпул 2 скачать торрент в хорошем качестве
    Дэдпул 2 смотреть онлайн бесплатно в хорошем качестве


    Вы не можете начинать темы
    Вы не можете отвечать на сообщения
    Вы не можете редактировать свои сообщения
    Вы не можете удалять свои сообщения
    Вы не можете голосовать в опросах
    Вы не можете прикреплять файлы к сообщениям
    Вы можете скачивать файлы