Всегда рабочее зеркало без VPN и Proxy просто перед .vidak.icu напиши любое слово или цифру, Пример http://e8vd.vidak.icu

MVO

2 сезон

1 сезон

1

1 сезон

iTunes

2 сезон

13

1 сезон

Deluxe

pack

Рекомендуем

Пиратка

30

ВАЖНО

RePack

MK11

RePack

jed

RePack

fifa19

RePack

RDR2

RePack

NEED FOR SPEED™ PAYBACK

Кинопоиск HD

6 сезон

 Острые козырьки 6 сезон

Все сериалы

все сериалы на PB.wtf

RePack

FAR CRY 5

Anonymous, нам критически не хватает 5601 руб. на оплату серверов и переферии за Апрель, помоги нам пожалуйста, вся надежда только на тебя. В благодарность мы отключим тебе всю рекламу на сайте!

×
  
Magnet ссылка

Пациент Зеро / Patient Zero (Штефан Руцовицки) [2018, Ужасы, боевик, драма, WEB-DL 1080p] AVO [BadBajo] pb.wtf

Пациент Зеро через торрент pb.wtf

Размер: 3.21 GB | Добавлен: 3 года 9 мес. назад | Торрент скачан:41 раз
Смотреть онлайн Пациент Зеро | Скачать    Ребята, помогите собрать деньги на оплату серверов!!!

14-08-2018 04:38 Пациент Зеро Скачать торрент  

Пациент Зеро / Patient Zero
Год выпуска: 2018
Страна: Великобритания
Жанр: Ужасы, боевик, драма
Продолжительность: 01:26:46
Перевод: Авторский (одноголосый) |
Субтитры: английские

Режиссер: Штефан Руцовицки

rating

В ролях:

Натали Дормер, Мэтт Смит, Стэнли Туччи, Клайв Стэнден, Фредерик Шмидт, Агнесс Дейн, Джон Брэдли, Пиппа Беннетт-Уорнер, Колин МакФарлэйн, Дильяна Буклиева

Описание:

По Земле прокатился вирус, в результате которого большая часть населения превратилась в кровожадных и жестоких безумцев или, иными словами, в «инфицированных». Цивилизация погружается в хаос, человечество стоит на грани вымирания. Правда, некоторые люди имеют особый дар — понимать речь инфицированных и разговаривать с ними. Одним из немногих, кто наделен такой способностью, оказывается доктор Морган. Его жена тоже заражена. Морган решает найти так называемого пациента Зеро, с помощью которого можно создать антивирус и спасти человечество.

Качество: WEB-DL 1080p
Формат: MKV

Видео: 1920х800, ~4523Kbps, 23.976 (24000/1001) FPS
Аудио#1: Русский: AC3, 6 ch, 384 Kbps (BadBajo)
Аудио#2: Английский: AC3, 6 ch, 384 Kbps
скриншот  скриншот  скриншот  скриншот  скриншот  

Общее
Уникальный идентификатор : 154599045751114731737363363026842976025 (0x744EB172D728A260D11316A88F407F19)
Полное имя : E:\Patient.Zero.2018.1080p.WEB-DL.DD5.1.H264_rus_BadBajo.mkv
Формат : Matroska
Версия формата : Version 4 / Version 2
Размер файла : 3,21 Гбайт
Продолжительность : 1 ч. 26 м.
Общий поток : 5293 Кбит/сек
Название фильма : Patient.Zero.2018.1080p.WEB-DL.DD5.1.H264_rus_BadBajo
Дата кодирования : UTC 2018-08-13 11:59:57
Программа кодирования : mkvmerge v20.0.0 ('I Am The Sun') 64-bit
Библиотека кодирования : libebml v1.3.5 + libmatroska v1.4.8
Обложка : Yes
Attachments : cover.jpg

Видео
Идентификатор : 1
Формат : AVC
Формат/Информация : Advanced Video Codec
Профиль формата : High@L4
Настройки формата : CABAC / 5 Ref Frames
Параметр CABAC формата : Да
Параметр RefFrames формата : 5 кадров
Идентификатор кодека : V_MPEG4/ISO/AVC
Продолжительность : 1 ч. 26 м.
Битрейт : 4523 Кбит/сек
Ширина : 1920 пикселей
Высота : 800 пикселей
Соотношение сторон : 2,40:1
Режим частоты кадров : Постоянный
Частота кадров : 23,976 (23976/1000) кадра/сек
Цветовое пространство : YUV
Субдискретизация насыщенности : 4:2:0
Битовая глубина : 8 бит
Тип развёртки : Прогрессивная
Бит/(Пиксели*Кадры) : 0.123
Размер потока : 2,74 Гбайт (85%)
Язык : English
Default : Да
Forced : Нет
Цветовой диапазон : Limited
Основные цвета : BT.709
Характеристики трансфера : BT.709
Коэффициенты матрицы : BT.709

Аудио #1
Идентификатор : 2
Формат : AC-3
Формат/Информация : Audio Coding 3
Идентификатор кодека : A_AC3
Продолжительность : 1 ч. 26 м.
Вид битрейта : Постоянный
Битрейт : 384 Кбит/сек
Каналы : 6 каналов
Расположение каналов : Front: L C R, Side: L R, LFE
Частота : 48,0 КГц
Частота кадров : 31,250 кадров/сек (1536 SPF)
Битовая глубина : 16 бит
Метод сжатия : С потерями
Задержка видео : -42 мс.
Размер потока : 238 Мбайт (7%)
Заголовок : Patient.Zero.2018.AC3_rus_BadBajo
Язык : Russian
ServiceKind/String : Complete Main
Default : Да
Forced : Да

Аудио #2
Идентификатор : 3
Формат : AC-3
Формат/Информация : Audio Coding 3
Идентификатор кодека : A_AC3
Продолжительность : 1 ч. 26 м.
Вид битрейта : Постоянный
Битрейт : 384 Кбит/сек
Каналы : 6 каналов
Расположение каналов : Front: L C R, Side: L R, LFE
Частота : 48,0 КГц
Частота кадров : 31,250 кадров/сек (1536 SPF)
Битовая глубина : 16 бит
Метод сжатия : С потерями
Задержка видео : -42 мс.
Размер потока : 238 Мбайт (7%)
Язык : English
ServiceKind/String : Complete Main
Default : Нет
Forced : Нет

Текст
Идентификатор : 4
Формат : UTF-8
Идентификатор кодека : S_TEXT/UTF8
Идентификатор кодека/Информация : UTF-8 Plain Text
Продолжительность : 1 ч. 21 м.
Битрейт : 61 бит/сек
ElementCount : 1084
Размер потока : 36,6 Кбайт (0%)
Язык : English
Default : Нет
Forced : Нет

Меню
00:00:00.000 : en:1
00:04:13.545 : en:2
00:12:52.355 : en:3
00:15:21.379 : en:4
00:18:30.693 : en:5
00:25:32.489 : en:6
00:29:51.539 : en:7
00:36:42.408 : en:8
00:40:29.551 : en:9
00:43:31.900 : en:10
00:50:14.427 : en:11
00:55:46.884 : en:12
01:00:10.981 : en:13
01:05:01.187 : en:14
01:09:54.522 : en:15
01:15:22.850 : en:16

pb.wtf



Скачать Пациент Зеро через торрент https://c.radikal.ru/c17/1808/46/aa0975d24d90.jpg Скачать, смотреть онлайн Пациент Зеро бесплантно в хорошем качестве Описание: По Земле прокатился вирус, в результате которого большая часть населения превратилась в кровожадных и жестоких безумцев или, ... 10 10 3
Торрент: Зарегистрирован [2018-08-14 04:38] · скачан: 41 раз
Статус: √ проверено
Размер: 3.21 GB
Как cкачать? Как скачать Пациент Зеро через торрент | UTorrent

% Раздел Тема Автор DL S | L
# Фильмы (мультфильмы) cо спонсором показа (Новинки AVI/MKV) [ 8.04 GB ] Пациент Зеро / Нулевой пациент / Patient Zero [2018 BDRip 1080p] MVO [Официальный звук] bober100 Скачать
1 | 0
Фильмы [HD 720p, 1080p] (Хороший звук DUB, MVO) [ 3.41 GB ] Пациент Зеро / Нулевой пациент / Patient Zero [2018 BDRip 720p] MVO [Jaskier] bober100 Скачать
1 | 0
Фильмы 2018 [DVDrip, WEB-DLRip, HDrip] (DUB, MVO) [ 1.46 GB ] Пациент Зеро / Нулевой пациент / Patient Zero [2018 BDRip] MVO [Jaskier] bober100 Скачать
1 | 0
T Фильмы (Blu-ray, BD-Remux, HDDVD) [ 16.58 GB ] Пациент Зеро / Нулевой пациент / Patient Zero [2018 BD Remux 1080p] MVO [HDRezka Studio] bober100 Скачать
1 | 0
# Фильмы (мультфильмы) cо спонсором показа (Новинки AVI/MKV) [ 4.65 GB ] Пациент Зеро / Нулевой пациент / Patient Zero [2018 BDRip 720p] MVO [Официальный звук] bober100 Скачать
1 | 0
T Фильмы (мультфильмы) cо спонсором показа (Новинки AVI/MKV) [ 1.37 GB ] Пациент Зеро / Нулевой пациент / Patient Zero [2018 HDRip] MVO [Официальный звук] bober100 Скачать
1 | 0
T Фильмы 2018 [DVDrip, WEB-DLRip, HDrip] (DUB, MVO) [ 1.46 GB ] Пациент Зеро / Нулевой пациент / Patient Zero [2018 BDRip] MVO [HDRezka Studio] Twi7ter Скачать
2 | 0

28-11-2019 20:33  

Отключить всю рекламу на сайте

    Дорогой пользователь! Огромная просьба, поблагодарите релизера, оцените раздачу и оставьте свои комментарий, если Вы скачали Пациент Зеро через торрент бесплатно!
    Комментировать посты могут только пользователи прошедшие не сложную регистрацию
    Показать сообщения:    

    Пациент Зеро через торрент
    Скачать бесплатно Пациент Зеро
    Пациент Зеро скачать торрент
    Пациент Зеро смотреть онлайн
    Cкачать фильм Пациент Зеро бесплатно
    Пациент Зеро скачать торрент в хорошем качестве
    Пациент Зеро смотреть онлайн бесплатно в хорошем качестве


    Вы не можете начинать темы
    Вы не можете отвечать на сообщения
    Вы не можете редактировать свои сообщения
    Вы не можете удалять свои сообщения
    Вы не можете голосовать в опросах
    Вы не можете прикреплять файлы к сообщениям
    Вы можете скачивать файлы