Ссылка на приватное зеркало нашего сайта всего за 1$. Внимание количество ограничено!!!

2 сезон

iTunes

1 сезон

1

iTunes

iTunes

iTunes

1 сезон

RePack

30

ИГРА 18+

pack

ВАЖНО

!!Акция!!

Alien_RageХит недели

RePack

MK11
pack

Забери бонус

RePack

jed

!!Акция!!

Alien_Rage

RePack

fifa19

RePack

Assassins Creed: Odyssey

RePack

NEED FOR SPEED™ PAYBACK

4 сезон

9 сезон

Бесстыжие 9 сезон

Все сериалы

все сериалы на PB.wtf

RePack

FAR CRY 5
  

Девятый пассажир / The Ninth Passenger (Кори Лардж) [2018 г., Триллер, ужасы, DVDRip, Любительский (многоголосый) (Синема УС)] pb.wtf

Девятый пассажир через торрент pb.wtf

Размер: 1.24 GB | Добавлен: 2 года 2 мес. назад | Торрент скачан:193 раза
Скачать  

19-08-2018 08:38 Девятый пассажир Скачать торрент  

Девятый пассажир / The Ninth Passenger
Год выпуска: 2018
Страна: Канада
Жанр: Триллер, ужасы
Перевод: Любительский (многоголосый)(Синема УС)
Субтитры: Отсутствуют

Режиссер: Кори Лардж

rating

В ролях: Алексия Фаст, Джесси Меткалф, Тимоти В. Мерфи, Цинта Лаура Кил, Сабина Гадеки, Том Мэден, Вероника Данн, Кори Лардж, Дэвид Хеннесси, Эрик Робертсон

Описание: Ночная вечеринка в открытом море. На борту яхты - восемь человек. Яхта принадлежит отцу одного из пассажиров, и отец этот является директором биотехнологической компании. Но из-за поломки веселье заканчивается довольно быстро, и герои вынуждены дрейфовать в сторону тёмного острова. Тут-то и выясняется, что среди них есть кое-кто ещё. Мутант-убийца начинает охоту.

Качество: DVDRip
Формат: AVI
Видео кодек: XviD
Аудио кодек: AC3
Видео: XviD, 720x304, ~1953 Kbps
Аудио#1: AC-3, 2 ch, 384 Kbps
скриншот   скриншот   скриншот   скриншот  

Общее
Полное имя : E:\NNM\Девятый пассажир\The Ninth Passenger 2018 DVDRip.avi
Формат : AVI
Формат/Информация : Audio Video Interleave
Профиль формата : OpenDML
Размер файла : 1,24 Гбайт
Продолжительность : 1 ч. 15 м.
Общий поток : 2350 Кбит/сек

Видео
Идентификатор : 0
Формат : MPEG-4 Visual
Профиль формата : Advanced Simple@L5
Настройки формата : BVOP2 / Custom Matrix
Параметр BVOP формата : 2
Параметр QPel формата : Нет
Параметр GMC формата : Без точки перехода
Параметр матрицы формата : Выборочная
Идентификатор кодека : XVID
Идентификатор кодека/Подсказка : XviD
Продолжительность : 1 ч. 15 м.
Битрейт : 1953 Кбит/сек
Ширина : 720 пикселей
Высота : 304 пикселя
Соотношение сторон : 2,35:1
Частота кадров : 23,976 (24000/1001) кадра/сек
Цветовое пространство : YUV
Субдискретизация насыщенности : 4:2:0
Битовая глубина : 8 бит
Тип развёртки : Прогрессивная
Метод сжатия : С потерями
Бит/(Пиксели*Кадры) : 0.372
Размер потока : 1,03 Гбайт (83%)
Библиотека кодирования : XviD 1.2.1 (UTC 2008-12-04)

Аудио
Идентификатор : 1
Формат : AC-3
Формат/Информация : Audio Coding 3
Идентификатор кодека : 2000
Продолжительность : 1 ч. 15 м.
Вид битрейта : Постоянный
Битрейт : 384 Кбит/сек
Каналы : 2 канала
Расположение каналов : Front: L R
Частота : 48,0 КГц
Частота кадров : 31,250 кадров/сек (1536 SPF)
Битовая глубина : 16 бит
Метод сжатия : С потерями
Размер потока : 208 Мбайт (16%)
Выравнивание : Соединение по промежуткам
Продолжительность промежутка : 32 мс. (0,77 видеокадр)
ServiceKind/String : Complete Main

pb.wtf



Скачать Девятый пассажир через торрент http://pic1.kartinco.top/images/11/mbzuy.jpg Скачать фильм Девятый пассажир через торрент бесплантно в хорошем качестве Описание: Ночная вечеринка в открытом море. На борту яхты - восемь человек. Яхта принадлежит отцу одного из пассажиров, и отец этот ... 6.1 10 7
Торрент: Зарегистрирован [2018-08-19 08:38] · скачан: 193 раз
Статус: T временная
Размер: 1.24 GB
Как cкачать? Как скачать Девятый пассажир через торрент | qTorrent

28-11-2019 20:33  

Отключить всю рекламу на сайте

19-08-2018 10:07 Девятый пассажир Скачать торрент  

вот это описание)можно уже и не смотреть....убийца-шриф)pb.wtf



19-08-2018 10:21 Девятый пассажир Скачать торрент  

Неужели это кто-то смотрит..pb.wtf



    Дорогой пользователь! Огромная просьба, поблагодарите релизера, оцените раздачу и оставьте свои комментарий, если Вы скачали Девятый пассажир через торрент бесплатно! Внесите свою лепту в развитие PiratBit!
    Комментировать посты могут только пользователи прошедшие не сложную регистрацию
    Показать сообщения:    

    Девятый пассажир через торрент
    Скачать бесплатно Девятый пассажир
    Девятый пассажир скачать торрент
    Девятый пассажир смотреть онлайн
    Cкачать фильм Девятый пассажир бесплатно
    Девятый пассажир скачать торрент в хорошем качестве
    Девятый пассажир смотреть онлайн бесплатно в хорошем качестве


    Вы не можете начинать темы
    Вы не можете отвечать на сообщения
    Вы не можете редактировать свои сообщения
    Вы не можете удалять свои сообщения
    Вы не можете голосовать в опросах
    Вы не можете прикреплять файлы к сообщениям
    Вы можете скачивать файлы