Лицензия

MVO

1

1 сезон

Лицензия

Лицензия

13

MVO

1 сезон

Deluxe Edition

pack

Рекомендуем

30

Repack

ВАЖНО

ВАЖНО

Ghostwire

RePack

jed

RePack

fifa19

RePack

RDR2

RePack

NEED FOR SPEED™ PAYBACK

RePack

Кинопоиск HD

 Острые козырьки 6 сезон

6 сезон

FAR CRY 6

RePack

Лицензия

MVO

1

1 сезон

1 сезон

Лицензия

  

Голдфингер / Goldfinger (Гай Хэмилтон) [1964, боевик, триллер, приключения, UHD WEBRip 2160p] [SDR] DUB + 6xMVO + 2xDVO + 6xAVO

Голдфингер через торрент pb.wtf

Размер: 26.53 GB | Добавлен: 4 года 1 мес. назад | Торрент скачан:9 раз
Смотреть онлайн Голдфингер | Скачать   

20-08-2018 03:30 Голдфингер Скачать торрент  

Голдфингер / Goldfinger

Год выпуска: 1964
Страна: Великобритания
Жанр: боевик, триллер, приключения
Продолжительность: 01:50:08
Перевод: Дублированный, профессиональный многоголосый, профессиональный двухголосый, авторский
Субтитры: Английские, французские
Режиссер: Гай Хэмилтон
В ролях:

Шон Коннери (James Bond), Герт Фрёбе (Goldfinger), Онор Блэкман (Pussy Galore), Ширли Итон (Jill Masterson), Таня Мале (Tilly Masterson), Харольд Саката (Oddjob), Бернард Ли («M»), Мартин Бенсон (Solo), Сек Линдер (Felix Leiter), Остин Уиллис (Simmons), Лоис Максуэлл (Moneypenny), Билл Надь (Midnight)
Описание:
На этот раз Джеймс Бонд борется со злом в лице международного преступника Голдфингера. Негодяй планирует уничтожить золотой запас США, и таким образом ввергнуть в пучину хаоса все капиталистическое общество.
Рейтинг:

MPAA: PG - Рекомендуется присутствие родителей
Качество: UHD WEBRip 2160p | SDR
Формат: MKV
Видео: HEVC, SDR, 27.3 kbps, 3600x2160, 23,976 fps
Аудио:
AC3, 48.0 kHz, 2 ch, 192 Kbps | Дубляж
AC3, 48.0 kHz, 2 ch, 192 Kbps | Киномания
AC3, 48.0 kHz, 2 ch, 192 Kbps | Карусель
AC3, 48.0 kHz, 2 ch, 192 Kbps | Somewax
AC3, 48.0 kHz, 2 ch, 192 Kbps | DVD-Магия
AC3, 48.0 kHz, 2 ch, 192 Kbps | Лазер-Видео
AC3, 48.0 kHz, 2 ch, 192 Kbps | Пятый канал
AC3, 48.0 kHz, 2 ch, 192 Kbps | DDV
AC3, 48.0 kHz, 2 ch, 192 Kbps | НТВ
AC3, 48.0 kHz, 2 ch, 192 Kbps | Ю.Живов
AC3, 48.0 kHz, 2 ch, 192 Kbps | А.Гаврилов (v.1)
AC3, 48.0 kHz, 2 ch, 192 Kbps | А.Гаврилов (v.2)
AC3, 48.0 kHz, 2 ch, 192 Kbps | В.Сонькин
AC3, 48.0 kHz, 2 ch, 192 Kbps | Л.Володарский
AC3, 48.0 kHz, 2 ch, 192 Kbps | М.Иванов
AC3, 48.0 kHz, 2 ch, 192 Kbps | С.Кузнецов
DTS MA, 48.0 kHz, 6 ch, 3344 Kbps | Aнглийский
DTS , 48.0 kHz, 6 ch, 768 Kbps | Французский
Уникальный идентификатор : 333540739843364579366951601268949866652 (0xFAED9C1F5FF05B52AE04663F6C69589C)
Полное имя : Goldfinger.1964.2160p.SDR.WEBRip.DTS-HD.MA.5.1.x265.mkv
Формат : Matroska
Версия формата : Version 4 / Version 2
Размер файла : 26,5 Гбайт
Продолжительность : 1 ч. 50 м.
Общий поток : 34,5 Мбит/сек
Дата кодирования : UTC 2018-08-10 04:02:31
Программа кодирования : mkvmerge v25.0.0 ('Prog Noir') 64-bit
Библиотека кодирования : libebml v1.3.6 + libmatroska v1.4.9

Видео
Идентификатор : 1
Формат : HEVC
Формат/Информация : High Efficiency Video Coding
Профиль формата : Main [email protected]@Main
Идентификатор кодека : V_MPEGH/ISO/HEVC
Продолжительность : 1 ч. 50 м.
Битрейт : 27,3 Мбит/сек
Ширина : 3600 пикселей
Высота : 2160 пикселей
Соотношение сторон : 5:3
Режим частоты кадров : Постоянный
Частота кадров : 23,976 (24000/1001) кадра/сек
Цветовое пространство : YUV
Субдискретизация насыщенности : 4:2:0 (Type 2)
Битовая глубина : 10 бит
Бит/(Пиксели*Кадры) : 0.146
Размер потока : 21,0 Гбайт (79%)
Библиотека кодирования : x265 2.8+19-bcdc610cf5f0:[Windows][MSVC 1914][64 bit] 10bit
Настройки программы : cpuid=1111039 / frame-threads=3 / numa-pools=8 / wpp / no-pmode / no-pme / no-psnr / no-ssim / log-level=2 / input-csp=1 / input-res=3600x2160 / interlace=0 / total-frames=158436 / level-idc=0 / high-tier=1 / uhd-bd=0 / ref=3 / no-allow-non-conformance / repeat-headers / annexb / aud / no-hrd / info / hash=0 / no-temporal-layers / no-open-gop / min-keyint=24 / keyint=240 / gop-lookahead=0 / bframes=4 / b-adapt=2 / b-pyramid / bframe-bias=0 / rc-lookahead=20 / lookahead-slices=8 / scenecut=40 / radl=0 / no-intra-refresh / ctu=64 / min-cu-size=8 / no-rect / no-amp / max-tu-size=32 / tu-inter-depth=1 / tu-intra-depth=1 / limit-tu=0 / rdoq-level=0 / dynamic-rd=0.00 / no-ssim-rd / signhide / no-tskip / nr-intra=0 / nr-inter=0 / no-constrained-intra / no-strong-intra-smoothing / max-merge=2 / limit-refs=3 / no-limit-modes / me=1 / subme=2 / merange=57 / temporal-mvp / weightp / no-weightb / no-analyze-src-pics / deblock=3:3 / no-sao / no-sao-non-deblock / rd=3 / no-early-skip / rskip / no-fast-intra / no-tskip-fast / no-cu-lossless / no-b-intra / no-splitrd-skip / rdpenalty=0 / psy-rd=2.00 / psy-rdoq=0.00 / no-rd-refine / no-lossless / cbqpoffs=0 / crqpoffs=0 / rc=crf / crf=17.0 / qcomp=0.60 / qpstep=4 / stats-write=0 / stats-read=0 / ipratio=1.40 / pbratio=1.30 / aq-mode=1 / aq-strength=1.00 / cutree / zone-count=0 / no-strict-cbr / qg-size=32 / no-rc-grain / qpmax=69 / qpmin=0 / no-const-vbv / sar=1 / overscan=0 / videoformat=5 / range=0 / colorprim=1 / transfer=1 / colormatrix=1 / chromaloc=1 / chromaloc-top=2 / chromaloc-bottom=2 / display-window=0 / max-cll=0,0 / min-luma=0 / max-luma=1023 / log2-max-poc-lsb=8 / vui-timing-info / vui-hrd-info / slices=1 / no-opt-qp-pps / no-opt-ref-list-length-pps / no-multi-pass-opt-rps / scenecut-bias=0.05 / no-opt-cu-delta-qp / no-aq-motion / no-hdr / no-hdr-opt / no-dhdr10-opt / no-idr-recovery-sei / analysis-reuse-level=5 / scale-factor=0 / refine-intra=0 / refine-inter=0 / refine-mv=0 / no-limit-sao / ctu-info=0 / no-lowpass-dct / refine-mv-type=0 / copy-pic=1 / max-ausize-factor=1.0 / no-dynamic-refine / no-single-sei
Default : Да
Forced : Нет
Цветовой диапазон : Limited
Основные цвета : BT.709
Характеристики трансфера : BT.709
Коэффициенты матрицы : BT.709

Аудио #1
Идентификатор : 2
Формат : AC-3
Формат/Информация : Audio Coding 3
Идентификатор кодека : A_AC3
Продолжительность : 1 ч. 50 м.
Вид битрейта : Постоянный
Битрейт : 192 Кбит/сек
Каналы : 2 канала
Расположение каналов : Front: L R
Частота : 48,0 КГц
Частота кадров : 31,250 кадров/сек (1536 SPF)
Битовая глубина : 16 бит
Метод сжатия : С потерями
Задержка видео : 4 с. 500 мс.
Размер потока : 151 Мбайт (1%)
Заголовок : Дубляж
Язык : Russian
ServiceKind/String : Complete Main
Default : Нет
Forced : Нет

Аудио #2
Идентификатор : 3
Формат : DTS
Формат/Информация : Digital Theater Systems
Профиль формата : MA / Core
Идентификатор кодека : A_DTS
Продолжительность : 1 ч. 50 м.
Вид битрейта : Переменный / Постоянный
Битрейт : 3344 Кбит/сек / 1509 Кбит/сек
Каналы : 6 каналов
Расположение каналов : Front: L C R, Side: L R, LFE
Частота : 48,0 КГц
Частота кадров : 93,750 кадра/сек (512 SPF)
Битовая глубина : 24 бит
Метод сжатия : Без потерь / Lossy
Задержка видео : 4 с. 300 мс.
Размер потока : 2,57 Гбайт (10%)
Язык : English
Default : Да
Forced : Нет

Аудио #3
Идентификатор : 4
Формат : DTS
Формат/Информация : Digital Theater Systems
Идентификатор кодека : A_DTS
Продолжительность : 1 ч. 50 м.
Вид битрейта : Постоянный
Битрейт : 768 Кбит/сек
Каналы : 6 каналов
Расположение каналов : Front: L C R, Side: L R, LFE
Частота : 48,0 КГц
Частота кадров : 93,750 кадра/сек (512 SPF)
Битовая глубина : 24 бит
Метод сжатия : С потерями
Задержка видео : 1 мс.
Размер потока : 605 Мбайт (2%)
Заголовок : VFF
Язык : French
Default : Нет
Forced : Нет

Аудио #4
Идентификатор : 5
Формат : AC-3
Формат/Информация : Audio Coding 3
Идентификатор кодека : A_AC3
Продолжительность : 1 ч. 49 м.
Вид битрейта : Постоянный
Битрейт : 192 Кбит/сек
Каналы : 2 канала
Расположение каналов : Front: L R
Частота : 48,0 КГц
Частота кадров : 31,250 кадров/сек (1536 SPF)
Битовая глубина : 16 бит
Метод сжатия : С потерями
Задержка видео : 4 с. 500 мс.
Размер потока : 151 Мбайт (1%)
Заголовок : Многоголосый (Киномания)
Язык : Russian
ServiceKind/String : Complete Main
Default : Нет
Forced : Нет

Аудио #5
Идентификатор : 6
Формат : AC-3
Формат/Информация : Audio Coding 3
Идентификатор кодека : A_AC3
Продолжительность : 1 ч. 50 м.
Вид битрейта : Постоянный
Битрейт : 192 Кбит/сек
Каналы : 2 канала
Расположение каналов : Front: L R
Частота : 48,0 КГц
Частота кадров : 31,250 кадров/сек (1536 SPF)
Битовая глубина : 16 бит
Метод сжатия : С потерями
Задержка видео : 4 с. 500 мс.
Размер потока : 151 Мбайт (1%)
Заголовок : Многоголосый (Карусель)
Язык : Russian
ServiceKind/String : Complete Main
Default : Нет
Forced : Нет

Аудио #6
Идентификатор : 7
Формат : AC-3
Формат/Информация : Audio Coding 3
Идентификатор кодека : A_AC3
Продолжительность : 1 ч. 50 м.
Вид битрейта : Постоянный
Битрейт : 192 Кбит/сек
Каналы : 2 канала
Расположение каналов : Front: L R
Частота : 48,0 КГц
Частота кадров : 31,250 кадров/сек (1536 SPF)
Битовая глубина : 16 бит
Метод сжатия : С потерями
Задержка видео : 4 с. 500 мс.
Размер потока : 151 Мбайт (1%)
Заголовок : Многоголосый (Somewax)
Язык : Russian
ServiceKind/String : Complete Main
Default : Нет
Forced : Нет

Аудио #7
Идентификатор : 8
Формат : AC-3
Формат/Информация : Audio Coding 3
Идентификатор кодека : A_AC3
Продолжительность : 1 ч. 50 м.
Вид битрейта : Постоянный
Битрейт : 192 Кбит/сек
Каналы : 2 канала
Расположение каналов : Front: L R
Частота : 48,0 КГц
Частота кадров : 31,250 кадров/сек (1536 SPF)
Битовая глубина : 16 бит
Метод сжатия : С потерями
Задержка видео : 4 с. 500 мс.
Размер потока : 151 Мбайт (1%)
Заголовок : Многоголосый (DVD-Магия)
Язык : Russian
ServiceKind/String : Complete Main
Default : Нет
Forced : Нет

Аудио #8
Идентификатор : 9
Формат : AC-3
Формат/Информация : Audio Coding 3
Идентификатор кодека : A_AC3
Продолжительность : 1 ч. 50 м.
Вид битрейта : Постоянный
Битрейт : 192 Кбит/сек
Каналы : 2 канала
Расположение каналов : Front: L R
Частота : 48,0 КГц
Частота кадров : 31,250 кадров/сек (1536 SPF)
Битовая глубина : 16 бит
Метод сжатия : С потерями
Задержка видео : 4 с. 500 мс.
Размер потока : 151 Мбайт (1%)
Заголовок : Многоголосый (Лазер-Видео)
Язык : Russian
ServiceKind/String : Complete Main
Default : Нет
Forced : Нет

Аудио #9
Идентификатор : 10
Формат : AC-3
Формат/Информация : Audio Coding 3
Идентификатор кодека : A_AC3
Продолжительность : 1 ч. 50 м.
Вид битрейта : Постоянный
Битрейт : 192 Кбит/сек
Каналы : 2 канала
Расположение каналов : Front: L R
Частота : 48,0 КГц
Частота кадров : 31,250 кадров/сек (1536 SPF)
Битовая глубина : 16 бит
Метод сжатия : С потерями
Задержка видео : 4 с. 500 мс.
Размер потока : 151 Мбайт (1%)
Заголовок : Многоголосый (Пятый канал)
Язык : Russian
ServiceKind/String : Complete Main
Default : Нет
Forced : Нет

Аудио #10
Идентификатор : 11
Формат : AC-3
Формат/Информация : Audio Coding 3
Идентификатор кодека : A_AC3
Продолжительность : 1 ч. 50 м.
Вид битрейта : Постоянный
Битрейт : 192 Кбит/сек
Каналы : 2 канала
Расположение каналов : Front: L R
Частота : 48,0 КГц
Частота кадров : 31,250 кадров/сек (1536 SPF)
Битовая глубина : 16 бит
Метод сжатия : С потерями
Задержка видео : 4 с. 500 мс.
Размер потока : 151 Мбайт (1%)
Заголовок : Двухголосый (DDV)
Язык : Russian
ServiceKind/String : Complete Main
Default : Нет
Forced : Нет

Аудио #11
Идентификатор : 12
Формат : AC-3
Формат/Информация : Audio Coding 3
Идентификатор кодека : A_AC3
Продолжительность : 1 ч. 50 м.
Вид битрейта : Постоянный
Битрейт : 192 Кбит/сек
Каналы : 2 канала
Расположение каналов : Front: L R
Частота : 48,0 КГц
Частота кадров : 31,250 кадров/сек (1536 SPF)
Битовая глубина : 16 бит
Метод сжатия : С потерями
Задержка видео : 4 с. 500 мс.
Размер потока : 151 Мбайт (1%)
Заголовок : Двухголосый (НТВ)
Язык : Russian
ServiceKind/String : Complete Main
Default : Нет
Forced : Нет

Аудио #12
Идентификатор : 13
Формат : AC-3
Формат/Информация : Audio Coding 3
Идентификатор кодека : A_AC3
Продолжительность : 1 ч. 50 м.
Вид битрейта : Постоянный
Битрейт : 192 Кбит/сек
Каналы : 2 канала
Расположение каналов : Front: L R
Частота : 48,0 КГц
Частота кадров : 31,250 кадров/сек (1536 SPF)
Битовая глубина : 16 бит
Метод сжатия : С потерями
Задержка видео : 4 с. 500 мс.
Размер потока : 151 Мбайт (1%)
Заголовок : Авторский (Ю.Живов)
Язык : Russian
ServiceKind/String : Complete Main
Default : Нет
Forced : Нет

Аудио #13
Идентификатор : 14
Формат : AC-3
Формат/Информация : Audio Coding 3
Идентификатор кодека : A_AC3
Продолжительность : 1 ч. 50 м.
Вид битрейта : Постоянный
Битрейт : 192 Кбит/сек
Каналы : 2 канала
Расположение каналов : Front: L R
Частота : 48,0 КГц
Частота кадров : 31,250 кадров/сек (1536 SPF)
Битовая глубина : 16 бит
Метод сжатия : С потерями
Задержка видео : 4 с. 500 мс.
Размер потока : 151 Мбайт (1%)
Заголовок : Авт - А. Гаврилов 1
Язык : Russian
ServiceKind/String : Complete Main
Default : Нет
Forced : Нет

Аудио #14
Идентификатор : 15
Формат : AC-3
Формат/Информация : Audio Coding 3
Идентификатор кодека : A_AC3
Продолжительность : 1 ч. 50 м.
Вид битрейта : Постоянный
Битрейт : 192 Кбит/сек
Каналы : 2 канала
Расположение каналов : Front: L R
Частота : 48,0 КГц
Частота кадров : 31,250 кадров/сек (1536 SPF)
Битовая глубина : 16 бит
Метод сжатия : С потерями
Задержка видео : 4 с. 500 мс.
Размер потока : 151 Мбайт (1%)
Заголовок : Авт - А. Гаврилов 2
Язык : Russian
ServiceKind/String : Complete Main
Default : Нет
Forced : Нет

Аудио #15
Идентификатор : 16
Формат : AC-3
Формат/Информация : Audio Coding 3
Идентификатор кодека : A_AC3
Продолжительность : 1 ч. 50 м.
Вид битрейта : Постоянный
Битрейт : 192 Кбит/сек
Каналы : 2 канала
Расположение каналов : Front: L R
Частота : 48,0 КГц
Частота кадров : 31,250 кадров/сек (1536 SPF)
Битовая глубина : 16 бит
Метод сжатия : С потерями
Задержка видео : 4 с. 500 мс.
Размер потока : 151 Мбайт (1%)
Заголовок : Авт - В. Сонькин
Язык : Russian
ServiceKind/String : Complete Main
Default : Нет
Forced : Нет

Аудио #16
Идентификатор : 17
Формат : AC-3
Формат/Информация : Audio Coding 3
Идентификатор кодека : A_AC3
Продолжительность : 1 ч. 50 м.
Вид битрейта : Постоянный
Битрейт : 192 Кбит/сек
Каналы : 2 канала
Расположение каналов : Front: L R
Частота : 48,0 КГц
Частота кадров : 31,250 кадров/сек (1536 SPF)
Битовая глубина : 16 бит
Метод сжатия : С потерями
Задержка видео : 4 с. 500 мс.
Размер потока : 151 Мбайт (1%)
Заголовок : Авт - Л. Володарский
Язык : Russian
ServiceKind/String : Complete Main
Default : Нет
Forced : Нет

Аудио #17
Идентификатор : 18
Формат : AC-3
Формат/Информация : Audio Coding 3
Идентификатор кодека : A_AC3
Продолжительность : 1 ч. 50 м.
Вид битрейта : Постоянный
Битрейт : 192 Кбит/сек
Каналы : 2 канала
Расположение каналов : Front: L R
Частота : 48,0 КГц
Частота кадров : 31,250 кадров/сек (1536 SPF)
Битовая глубина : 16 бит
Метод сжатия : С потерями
Задержка видео : 4 с. 500 мс.
Размер потока : 151 Мбайт (1%)
Заголовок : Авт - М. Иванов
Язык : Russian
ServiceKind/String : Complete Main
Default : Нет
Forced : Нет

Аудио #18
Идентификатор : 19
Формат : AC-3
Формат/Информация : Audio Coding 3
Идентификатор кодека : A_AC3
Продолжительность : 1 ч. 50 м.
Вид битрейта : Постоянный
Битрейт : 192 Кбит/сек
Каналы : 2 канала
Расположение каналов : Front: L R
Частота : 48,0 КГц
Частота кадров : 31,250 кадров/сек (1536 SPF)
Битовая глубина : 16 бит
Метод сжатия : С потерями
Задержка видео : 4 с. 500 мс.
Размер потока : 151 Мбайт (1%)
Заголовок : Авт - С. Кузнецов
Язык : Russian
ServiceKind/String : Complete Main
Default : Нет
Forced : Нет

Текст #1
Идентификатор : 20
Формат : UTF-8
Идентификатор кодека : S_TEXT/UTF8
Идентификатор кодека/Информация : UTF-8 Plain Text
Продолжительность : 1 ч. 46 м.
Битрейт : 40 бит/сек
ElementCount : 856
Размер потока : 31,7 Кбайт (0%)
Язык : English
Default : Нет
Forced : Нет

Текст #2
Идентификатор : 21
Формат : UTF-8
Идентификатор кодека : S_TEXT/UTF8
Идентификатор кодека/Информация : UTF-8 Plain Text
Продолжительность : 37 м. 36 с.
Битрейт : 0 бит/сек
ElementCount : 6
Размер потока : 159 байт (0%)
Заголовок : FORCED
Язык : French
Default : Нет
Forced : Нет



Скачать Голдфингер через торрент https://a.radikal.ru/a38/1808/b8/86f5e9852b06.png Скачать, смотреть онлайн Голдфингер бесплантно в хорошем качестве Описание: На этот раз Джеймс Бонд борется со злом в лице международного преступника Голдфингера. Негодяй планирует уничтожить золотой запас ... 10 10 1
Торрент: Зарегистрирован [2018-08-20 03:30] · скачан: 9 раз
Статус: √ проверено
Размер: 26.53 GB
Как cкачать? Как скачать Голдфингер через торрент | UTorrent




Последний раз редактировалось: sheker187 (2018-08-20 04:59), всего редактировалось 1 раз

28-11-2019 20:33  

Отключить вcю реклaмy на сайте

20-08-2018 03:57 Голдфингер Скачать торрент  

sheker187, Добавь третий скриншот



    Дорогой пользователь! Огромная просьба, поблагодарите релизера, оцените раздачу и оставьте свои комментарий, если Вы скачали Голдфингер через торрент бесплатно!!
    Комментировать посты могут только пользователи прошедшие не сложную регистрацию
    Показать сообщения:    


    Голдфингер через торрент
    Скачать бесплатно Голдфингер
    Голдфингер скачать торрент
    Голдфингер смотреть онлайн
    Cкачать фильм Голдфингер бесплатно
    Голдфингер скачать торрент в хорошем качестве
    Голдфингер смотреть онлайн бесплатно в хорошем качестве
    Вы не можете начинать темы
    Вы не можете отвечать на сообщения
    Вы не можете редактировать свои сообщения
    Вы не можете удалять свои сообщения
    Вы не можете голосовать в опросах
    Вы не можете прикреплять файлы к сообщениям
    Вы можете скачивать файлы