Ссылка на приватное зеркало нашего сайта всего за 1$. Внимание количество ограничено!!!

2 сезон

iTunes

1 сезон

1

iTunes

iTunes

iTunes

1 сезон

RePack

30

ИГРА 18+

pack

ВАЖНО

!!Акция!!

Alien_RageХит недели

RePack

MK11
pack

Забери бонус

RePack

jed

!!Акция!!

Alien_Rage

RePack

fifa19

RePack

Assassins Creed: Odyssey

RePack

NEED FOR SPEED™ PAYBACK

4 сезон

9 сезон

Бесстыжие 9 сезон

Все сериалы

все сериалы на PB.wtf

RePack

FAR CRY 5
  

Душа компании / Life of the Party (Бен Фэлкоун) [2018, комедия, UHD WEBRip 2160p] DUB (ukr) +MVO [HDrezka Studio] pb.wtf

Душа компании через торрент pb.wtf

Размер: 20.54 GB | Добавлен: 2 года 1 мес. назад | Торрент скачан:56 раз
Скачать  

24-08-2018 22:07 Душа компании Скачать торрент  

Душа компании / Life of the Party
Год выпуска: 2018
Страна: США
Жанр: комедия
Продолжительность: 01:44:48
Перевод: Профессиональный (многоголосый) | HDRezka studio
Субтитры: Английские

Режиссер: Бен Фэлкоун

rating

В ролях:

Мелисса МакКарти (Deanna), Мэтт Уолш (Dan), Молли Гордон (Maddie), Бен Фэлкоун (Uber Driver), Джеки Уивер (Sandy), Стивен Рут (Mike), Майя Рудольф (Christine), Steve Falcone (Older Man #1 / Vince), Michael D. McCarthy (Older Man #2 / Dennis), Крис Кавалье (Eugene), Гиллиан Джейкобс (Helen), Адриа Архона (Amanda)
Описание:

После неожиданного развода домохозяйка Диана решает перезапустить собственную жизнь и отправляется в колледж. Она попадает на один поток с родной дочерью, которая совсем не рада подобному повороту событий. Но Диану уже не остановить. С распростёртыми объятиями она принимает безумную студенческую жизнь.

Качество: UHD WEBRip 2160p
Формат: MKV

Видео: HEVC HDR, 24.1 Mбит/с, 3840x1608, 23.976 кадр/с
Аудио#1: Русский (AC3, 2 ch, 192 Кбит/с) / Профессиональный многоголосый (HDRezka Studio)
Аудио#2: Украинский (AC3, 2 ch, 192 Кбит/с) / Дублированный (студия Postmodern)
Аудио#3: Английский (DTS-HD MA, 6 ch, 3583 Кбит/с)
скриншот  скриншот  скриншот  скриншот  скриншот  

General
Unique ID : 247568438782183420443578538108622614458 (0xBA3FF26B8CC336E8D188603065062FBA)
Complete name : C:UsersPublicVideosSample VideosFilmyLife.of.the.Party.2018.2160p.HDR.WEBRip.MediaClub.mkv
Format : Matroska
Format version : Version 4 / Version 2
File size : 20.5 GiB
Duration : 1 h 44 min
Overall bit rate : 28.1 Mb/s
Encoded date : UTC 2018-08-24 19:39:50
Writing application : mkvmerge v25.0.0 ('Prog Noir') 64-bit
Writing library : libebml v1.3.6 + libmatroska v1.4.9
Cover : Yes
Attachments : cover.jpg

Video
ID : 1
Format : HEVC
Format/Info : High Efficiency Video Coding
Commercial name : HDR10
Format profile : Main 10@L5.1@High
Codec ID : V_MPEGH/ISO/HEVC
Duration : 1 h 44 min
Bit rate : 24.1 Mb/s
Width : 3 840 pixels
Height : 1 608 pixels
Display aspect ratio : 2.40:1
Frame rate mode : Constant
Frame rate : 23.976 (24000/1001) FPS
Color space : YUV
Chroma subsampling : 4:2:0 (Type 2)
Bit depth : 10 bits
Bits/(Pixel*Frame) : 0.163
Stream size : 17.6 GiB (86%)
Title : WEBRip.2160p.HDR by Silverok
Writing library : x265 2.8+19-bcdc610cf5f0:[Windows][MSVC 1914][64 bit] 10bit
Encoding settings : cpuid=1111039 / frame-threads=3 / numa-pools=8 / wpp / no-pmode / no-pme / no-psnr / no-ssim / log-level=2 / input-csp=1 / input-res=3840x1608 / interlace=0 / total-frames=150671 / level-idc=51 / high-tier=1 / uhd-bd=0 / ref=3 / no-allow-non-conformance / repeat-headers / annexb / aud / hrd / info / hash=0 / no-temporal-layers / no-open-gop / min-keyint=24 / keyint=240 / gop-lookahead=0 / bframes=4 / b-adapt=2 / b-pyramid / bframe-bias=0 / rc-lookahead=20 / lookahead-slices=8 / scenecut=40 / radl=0 / no-intra-refresh / ctu=64 / min-cu-size=8 / no-rect / no-amp / max-tu-size=32 / tu-inter-depth=1 / tu-intra-depth=1 / limit-tu=0 / rdoq-level=0 / dynamic-rd=0.00 / no-ssim-rd / signhide / no-tskip / nr-intra=0 / nr-inter=0 / no-constrained-intra / no-strong-intra-smoothing / max-merge=2 / limit-refs=3 / no-limit-modes / me=1 / subme=2 / merange=57 / temporal-mvp / weightp / no-weightb / no-analyze-src-pics / deblock=3:3 / no-sao / no-sao-non-deblock / rd=3 / no-early-skip / rskip / no-fast-intra / no-tskip-fast / no-cu-lossless / no-b-intra / no-splitrd-skip / rdpenalty=0 / psy-rd=2.00 / psy-rdoq=0.00 / no-rd-refine / no-lossless / cbqpoffs=0 / crqpoffs=0 / rc=crf / crf=11.0 / qcomp=0.70 / qpstep=4 / stats-write=0 / stats-read=0 / vbv-maxrate=160000 / vbv-bufsize=160000 / vbv-init=0.9 / crf-max=0.0 / crf-min=0.0 / ipratio=1.40 / pbratio=1.30 / aq-mode=1 / aq-strength=1.00 / cutree / zone-count=0 / no-strict-cbr / qg-size=32 / no-rc-grain / qpmax=69 / qpmin=0 / no-const-vbv / sar=1 / overscan=0 / videoformat=5 / range=0 / colorprim=9 / transfer=16 / colormatrix=9 / chromaloc=1 / chromaloc-top=2 / chromaloc-bottom=2 / display-window=0 / master-display=G(8500,39850)B(6550,2300)R(35400,14600)WP(15635,16450)L(39990000,50) / max-cll=4000,1000 / min-luma=0 / max-luma=1023 / log2-max-poc-lsb=8 / vui-timing-info / vui-hrd-info / slices=1 / no-opt-qp-pps / no-opt-ref-list-length-pps / no-multi-pass-opt-rps / scenecut-bias=0.05 / no-opt-cu-delta-qp / no-aq-motion / hdr / hdr-opt / no-dhdr10-opt / no-idr-recovery-sei / analysis-reuse-level=5 / scale-factor=0 / refine-intra=0 / refine-inter=0 / refine-mv=0 / no-limit-sao / ctu-info=0 / no-lowpass-dct / refine-mv-type=0 / copy-pic=1 / max-ausize-factor=1.0 / no-dynamic-refine / no-single-sei
Default : Yes
Forced : No
Color range : Limited
Color primaries : BT.2020
Transfer characteristics : PQ
Matrix coefficients : BT.2020 non-constant
Mastering display color primaries : BT.2020
Mastering display luminance : min: 0.0050 cd/m2, max: 3999 cd/m2
Maximum Content Light Level : 4000 cd/m2
Maximum Frame-Average Light Level : 1000 cd/m2

Audio #1
ID : 2
Format : AC-3
Format/Info : Audio Coding 3
Codec ID : A_AC3
Duration : 1 h 44 min
Bit rate mode : Constant
Bit rate : 192 kb/s
Channel(s) : 2 channels
Channel positions : Front: L R
Sampling rate : 48.0 kHz
Frame rate : 31.250 FPS (1536 SPF)
Bit depth : 16 bits
Compression mode : Lossy
Stream size : 144 MiB (1%)
Title : Профессиональный многоголосый (HDRezka Studio)
Language : Russian
Service kind : Complete Main
Default : Yes
Forced : No

Audio #2
ID : 3
Format : AC-3
Format/Info : Audio Coding 3
Codec ID : A_AC3
Duration : 1 h 44 min
Bit rate mode : Constant
Bit rate : 192 kb/s
Channel(s) : 2 channels
Channel positions : Front: L R
Sampling rate : 48.0 kHz
Frame rate : 31.250 FPS (1536 SPF)
Bit depth : 16 bits
Compression mode : Lossy
Stream size : 144 MiB (1%)
Title : Украинский дубляж (студия Postmodern)
Language : Ukrainian
Service kind : Complete Main
Default : No
Forced : No

Audio #3
ID : 4
Format : DTS
Format/Info : Digital Theater Systems
Format profile : MA / Core
Codec ID : A_DTS
Duration : 1 h 44 min
Bit rate mode : Variable / Constant
Bit rate : 3 583 kb/s / 1 509 kb/s
Channel(s) : 6 channels
Channel positions : Front: L C R, Side: L R, LFE
Sampling rate : 48.0 kHz
Frame rate : 93.750 FPS (512 SPF)
Bit depth : 24 bits
Compression mode : Lossless / Lossy
Stream size : 2.62 GiB (13%)
Language : English
Default : No
Forced : No

Text
ID : 5
Format : UTF-8
Codec ID : S_TEXT/UTF8
Codec ID/Info : UTF-8 Plain Text
Duration : 1 h 44 min
Bit rate : 89 b/s
Count of elements : 2040
Stream size : 67.9 KiB (0%)
Title : Full
Language : English
Default : Yes
Forced : No

pb.wtf



Скачать Душа компании через торрент https://c.radikal.ru/c42/1808/bc/4de1bcd1ad8c.png Скачать фильм Душа компании через торрент бесплантно в хорошем качестве Описание: После неожиданного развода домохозяйка Диана решает перезапустить собственную жизнь и отправляется в колледж. Она попадает на ... 10 10 4
Торрент: Зарегистрирован [2018-08-24 22:07] · скачан: 56 раз
Статус: T временная
Размер: 20.54 GB
Как cкачать? Как скачать Душа компании через торрент | qTorrent

% Раздел Тема Автор DL S | L
T Фильмы (Blu-ray, BD-Remux, HDDVD) [ 24.47 GB ] Душа компании / Life of the Party [2018 BD Remux 1080p] MVO [HDrezka Studio] bober100 Скачать
1 | 0
T Фильмы 2018 [DVDrip, WEB-DLRip, HDrip] (DUB, MVO) [ 1.61 GB ] Душа компании / Life of the Party [2018 BDRip-AVC] MVO [HDrezka Studio] bober100 Скачать
1 | 0
T Фильмы (WEB-DL 720p, 1080p) [ 3.75 GB ] Душа компании / Life of the Party [2018 WEB-DL 1080p] MVO [HDrezka Studio] bober100 Скачать
1 | 0
T R.G. Resident & PiratVoice - Фильмы, Видео [ 1.37 GB ] Душа компании / Life of the Party [2018 WEB-DLRip ] MVO [HDRezka Studio] -Lexx- Скачать
1 | 0

28-11-2019 20:33  

Отключить всю рекламу на сайте

    Дорогой пользователь! Огромная просьба, поблагодарите релизера, оцените раздачу и оставьте свои комментарий, если Вы скачали Душа компании через торрент бесплатно! Внесите свою лепту в развитие PiratBit!
    Комментировать посты могут только пользователи прошедшие не сложную регистрацию
    Показать сообщения:    

    Душа компании через торрент
    Скачать бесплатно Душа компании
    Душа компании скачать торрент
    Душа компании смотреть онлайн
    Cкачать фильм Душа компании бесплатно
    Душа компании скачать торрент в хорошем качестве
    Душа компании смотреть онлайн бесплатно в хорошем качестве


    Вы не можете начинать темы
    Вы не можете отвечать на сообщения
    Вы не можете редактировать свои сообщения
    Вы не можете удалять свои сообщения
    Вы не можете голосовать в опросах
    Вы не можете прикреплять файлы к сообщениям
    Вы можете скачивать файлы