Всегда рабочее зеркало без VPN и Proxy просто перед .vidak.icu напиши любое слово или цифру, Пример http://4wz1.vidak.icu

MVO

2 сезон

2 сезон

1

1 сезон

iTunes

2 сезон

13

1 сезон

Deluxe

pack

Рекомендуем

Пиратка

30

ВАЖНО

RePack

MK11

RePack

jed

RePack

fifa19

RePack

RDR2

RePack

NEED FOR SPEED™ PAYBACK

Кинопоиск HD

6 сезон

 Острые козырьки 6 сезон

Все сериалы

все сериалы на PB.wtf

RePack

FAR CRY 5

Anonymous, нам критически не хватает 5601 руб. на оплату серверов и переферии за Апрель, помоги нам пожалуйста, вся надежда только на тебя. В благодарность мы отключим тебе всю рекламу на сайте!

×
  
Magnet ссылка

Врата 2: Нарушители / The Gate II: Trespassers (Тибор Такач) [1990 г., ужасы, фэнтези, комедия, BDRip 720p] 2 AVO [Гаврилов, Визгунов] pb.wtf

Врата 2: Нарушители через торрент pb.wtf

Размер: 5.7 GB | Добавлен: 3 года 8 мес. назад | Торрент скачан:17 раз
Смотреть онлайн Врата 2: Нарушители | Скачать    Ребята, помогите собрать деньги на оплату серверов!!!

25-08-2018 19:18 Врата 2: Нарушители Скачать торрент  

Врата 2: Нарушители / The Gate II: Trespassers
Год выпуска: 1990

Страна: США, Канада

Жанр: Ужасы, фэнтези, комедия

Продолжительность: 01:32:48

Перевод: Авторский (одноголосый)

Режиссер: Тибор Такач

rating

В ролях: Луис Трип, Саймон Рейнольдс, Джеймс Вильмэр, Памела Адлон, Нил Манро, Джеймс Кидни, Ирен Позер, Элва Мэй Хувер, Джерри Мендичино

Описание: Прошло пять лет с того момента, как Глен, Эл и Тэрри обнаружили яму ведущую в мир демонов, с тех пор многое изменилось в жизни Терри. Друзья переехали, умерла мать и запил потерявший работу отец. Мальчик решает вызвать демона, чтобы тот исполнил его желание — вернуть отцу работу. Для этого он идёт в заброшенный дом Глена и устраивает спиритический сеанс и призывает монстра. В это время в дом приходит компания — двое парней и одна девушка, один из ребят стреляет из пистолета в гостя из преисподней. Тот падает замертво, но через некоторое время, оживает…

Качество: BDRip 720p

Формат: MKV

Видео кодек: MPEG-4 AVC

Аудио кодек: AC3

Видео: MPEG-4 AVC, 6906 Kбит/с, 1280x688

Аудио#1: Русский | AC3, 2 ch, 192 Кбит/с | Гаврилов

Аудио#2: Русский | AC3, 2 ch, 192 Кбит/с | Визгунов

Аудио#3: Английский | DTS, 2 ch, 1536 Кбит/с

Субтитры: Английские
Видео
Идентификатор : 1
Формат : AVC
Формат/Информация : Advanced Video Codec
Профиль формата : High@L4.1
Настройки формата : CABAC / 5 Ref Frames
Параметр CABAC формата : Да
Параметр RefFrames формата : 5 кадров
Идентификатор кодека : V_MPEG4/ISO/AVC
Продолжительность : 1 ч. 32 м.
Битрейт : 6906 Кбит/сек
Ширина : 1280 пикселей
Высота : 688 пикселей
Соотношение сторон : 1,85:1
Режим частоты кадров : Постоянный
Частота кадров : 23,976 (24000/1001) кадра/сек
Цветовое пространство : YUV
Субдискретизация насыщенности : 4:2:0
Битовая глубина : 8 бит
Тип развёртки : Прогрессивная
Бит/(Пиксели*Кадры) : 0.327
Размер потока : 4,36 Гбайт (76%)
Заголовок : The.Gate.II.Trespassers.1990.720p.BluRay
Библиотека кодирования : x264 core 155 r2901 7d0ff22
Настройки программы : cabac=1 / ref=5 / deblock=1:-2:-2 / analyse=0x3:0x133 / me=umh / subme=9 / psy=1 / psy_rd=1.00:0.00 / mixed_ref=1 / me_range=16 / chroma_me=1 / trellis=2 / 8x8dct=1 / cqm=0 / deadzone=21,11 / fast_pskip=0 / chroma_qp_offset=-2 / threads=12 / lookahead_threads=1 / sliced_threads=0 / nr=0 / decimate=1 / interlaced=0 / bluray_compat=0 / constrained_intra=0 / bframes=3 / b_pyramid=2 / b_adapt=2 / b_bias=0 / direct=3 / weightb=1 / open_gop=0 / weightp=2 / keyint=240 / keyint_min=23 / scenecut=40 / intra_refresh=0 / rc_lookahead=50 / rc=2pass / mbtree=1 / bitrate=6906 / ratetol=1.0 / qcomp=0.60 / qpmin=0 / qpmax=69 / qpstep=4 / cplxblur=20.0 / qblur=0.5 / vbv_maxrate=62500 / vbv_bufsize=78125 / nal_hrd=none / filler=0 / ip_ratio=1.40 / aq=1:0.70
Язык : English
Default : Да
Forced : Нет

Аудио #1
Идентификатор : 2
Формат : AC-3
Формат/Информация : Audio Coding 3
Идентификатор кодека : A_AC3
Продолжительность : 1 ч. 32 м.
Вид битрейта : Постоянный
Битрейт : 192 Кбит/сек
Каналы : 2 канала
Расположение каналов : Front: L R
Частота : 48,0 КГц
Частота кадров : 31,250 кадров/сек (1536 SPF)
Битовая глубина : 16 бит
Метод сжатия : С потерями
Размер потока : 127 Мбайт (2%)
Заголовок : AVO (Андрей Гаврилов)
Язык : Russian
ServiceKind/String : Complete Main
Default : Да
Forced : Нет

Аудио #2
Идентификатор : 3
Формат : AC-3
Формат/Информация : Audio Coding 3
Идентификатор кодека : A_AC3
Продолжительность : 1 ч. 32 м.
Вид битрейта : Постоянный
Битрейт : 192 Кбит/сек
Каналы : 2 канала
Расположение каналов : Front: L R
Частота : 48,0 КГц
Частота кадров : 31,250 кадров/сек (1536 SPF)
Битовая глубина : 16 бит
Метод сжатия : С потерями
Размер потока : 127 Мбайт (2%)
Заголовок : AVO (Визгунов)
Язык : Russian
ServiceKind/String : Complete Main
Default : Нет
Forced : Нет

Аудио #3
Идентификатор : 4
Формат : DTS
Формат/Информация : Digital Theater Systems
Идентификатор кодека : A_DTS
Продолжительность : 1 ч. 32 м.
Вид битрейта : Постоянный
Битрейт : 1509 Кбит/сек
Каналы : 2 канала
Расположение каналов : Front: L R
Частота : 48,0 КГц
Частота кадров : 93,750 кадра/сек (512 SPF)
Битовая глубина : 24 бит
Метод сжатия : С потерями
Размер потока : 1002 Мбайт (17%)
Язык : English
Default : Нет
Forced : Нет

Текст
Идентификатор : 5
Формат : UTF-8
Идентификатор кодека : S_TEXT/UTF8
Идентификатор кодека/Информация : UTF-8 Plain Text
Язык : English
Default : Нет
Forced : Нет

Меню
00:00:00.000 : en:00:00:00.000
00:04:02.243 : en:00:04:02.242
00:17:09.055 : en:00:17:09.028
00:23:51.457 : en:00:23:51.430
00:32:10.980 : en:00:32:10.929
00:38:10.339 : en:00:38:10.288
00:46:58.883 : en:00:46:58.816
00:54:10.314 : en:00:54:10.247
01:01:56.780 : en:01:01:56.713
01:11:50.373 : en:01:11:50.306
01:17:37.740 : en:01:17:37.653
01:25:54.236 : en:01:25:54.149


pb.wtf



Скачать Врата 2: Нарушители через торрент https://pic1.kartinco.top/images/11/91a98.jpg Скачать, смотреть онлайн Врата 2: Нарушители бесплантно в хорошем качестве Описание: Прошло пять лет с того момента, как Глен, Эл и Тэрри обнаружили яму ведущую в мир демонов, с тех пор многое изменилось в жизни ... 10 10 1
Info! Золотая раздача, скачанное не засчитывается.
Торрент: Зарегистрирован [2018-08-25 19:18] · скачан: 17 раз
Статус: √ проверено
Размер: 5.7 GB
Как cкачать? Как скачать Врата 2: Нарушители через торрент | UTorrent

28-11-2019 20:33  

Отключить всю рекламу на сайте

25-08-2018 19:36 Врата 2: Нарушители Скачать торрент  

Топик был перенесен из форума Оформление раздач (Кино, Видео и ТВ) в форум Фильмы с авторской озвучкой


Скорпион1976pb.wtf



    Дорогой пользователь! Огромная просьба, поблагодарите релизера, оцените раздачу и оставьте свои комментарий, если Вы скачали Врата 2: Нарушители через торрент бесплатно!
    Комментировать посты могут только пользователи прошедшие не сложную регистрацию
    Показать сообщения:    

    Врата 2: Нарушители через торрент
    Скачать бесплатно Врата 2: Нарушители
    Врата 2: Нарушители скачать торрент
    Врата 2: Нарушители смотреть онлайн
    Cкачать фильм Врата 2: Нарушители бесплатно
    Врата 2: Нарушители скачать торрент в хорошем качестве
    Врата 2: Нарушители смотреть онлайн бесплатно в хорошем качестве


    Вы не можете начинать темы
    Вы не можете отвечать на сообщения
    Вы не можете редактировать свои сообщения
    Вы не можете удалять свои сообщения
    Вы не можете голосовать в опросах
    Вы не можете прикреплять файлы к сообщениям
    Вы можете скачивать файлы