Всегда рабочее зеркало без VPN и Proxy просто перед .vidak.icu напиши любое слово или цифру, Пример http://9s70.vidak.icu

iTunes

2 сезон

1 сезон

1

1 сезон

iTunes

2 сезон

13

1 сезон

Deluxe

pack

Рекомендуем

Пиратка

30

ВАЖНО

RePack

MK11

RePack

jed

RePack

fifa19

RePack

RDR2

RePack

NEED FOR SPEED™ PAYBACK

Кинопоиск HD

6 сезон

 Острые козырьки 6 сезон

Все сериалы

все сериалы на PB.wtf

RePack

FAR CRY 5

Anonymous, нам критически не хватает 5601 руб. на оплату серверов и переферии за Апрель, помоги нам пожалуйста, вся надежда только на тебя. В благодарность мы отключим тебе всю рекламу на сайте!

×
  
Magnet ссылка

Агенты ФБР / Feds (Дэниэл Голдберг) [1988, Комедия, WEB-DL 1080p] [AVO] (Леонид Володарский) pb.wtf

Агенты ФБР через торрент pb.wtf

Размер: 7.83 GB | Добавлен: 3 года 8 мес. назад | Торрент скачан:7 раз
Смотреть онлайн Агенты ФБР | Скачать    Ребята, помогите собрать деньги на оплату серверов!!!

01-09-2018 13:58 Агенты ФБР Скачать торрент  

Информация о фильме

Название: Агенты ФБР
Оригинальное название: Feds
Год выпуска: 1988
Выпущено: США
Жанр: Комедия
Продолжительность: 01:22:48
Перевод: Авторский (одноголосый) Леонид Володарский
Субтитры: Английские

Режиссер: Дэниэл Голдберг

В ролях: Ребекка Де Морнэй, Мэри Гросс, Кен Маршалл, Фред Далтон Томпсон, Ларри Седар, Рэймонд Сингер, Джеймс Луизи, Норман Бернард, Дон Старк

О фильме: Подруги проходят курс обучения в школе ФБР. Джанис должна научиться быть крутой, чтобы без страха надевать наручники на 100-килограммового мордоворота. Бывалой Элли, служившей в морской пехоте, с трудом даются премудрости юриспруденции. Вместе они весело и дружно преодолевают препятствия, воздвигаемые на их пути к дипломам и карьере твердолобыми мужчинами.



Файл

Качество: WEB-DL 1080p
Формат MKV
Видео: MPEG-4 AVC, 12,9 Мбит/сек, 1920x1080, 23,976 кадра/сек
Аудио #1: AC3, 2 ch, 192 Кбит/сек | Русский, авторский (одноголосый закадровый) Леонид Володарский
Аудио #2: EAC3, 2 ch, 224 Кбит/сек | Английский, оригинал
скриншот  скриншот  скриншот  
Общее

Уникальный идентификатор : 187488500375488255575446586687436044367 (0x8D0CF8C1FEECEF39A7A6F54F5D07384F)

Полное имя : Агенты.ФБР.1988.WEB-DL.1080p.mkv

Формат : Matroska

Версия формата : Version 2

Размер файла : 7,83 Гбайт

Продолжительность : 1 ч. 22 м.

Режим общего битрейта : Переменный

Общий поток : 13,5 Мбит/сек

Дата кодирования : UTC 2018-08-31 17:06:12

Программа кодирования : mkvmerge v5.8.0 ('No Sleep / Pillow') built on Sep 2 2012 15:37:04

Библиотека кодирования : libebml v1.2.3 + libmatroska v1.3.0

Видео

Идентификатор : 1

Формат : AVC

Формат/Информация : Advanced Video Codec

Профиль формата : High@L4

Настройки формата : CABAC / 4 Ref Frames

Параметр CABAC формата : Да

Параметр RefFrames формата : 4 кадра

Идентификатор кодека : V_MPEG4/ISO/AVC

Продолжительность : 1 ч. 22 м.

Вид битрейта : Переменный

Битрейт : 12,9 Мбит/сек

Максимальный битрейт : 15,0 Мбит/сек

Ширина : 1920 пикселей

Высота : 1080 пикселей

Соотношение сторон : 16:9

Режим частоты кадров : Постоянный

Частота кадров : 23,976 (24000/1001) кадра/сек

Цветовое пространство : YUV

Субдискретизация насыщенности : 4:2:0

Битовая глубина : 8 бит

Тип развёртки : Прогрессивная

Бит/(Пиксели*Кадры) : 0.259

Размер потока : 7,44 Гбайт (95%)

Библиотека кодирования : x264 core 148 r2623 d5b2374

Настройки программы : cabac=1 / ref=4 / deblock=1:-1:-1 / analyse=0x3:0x133 / me=umh / subme=9 / psy=1 / psy_rd=1.00:0.15 / mixed_ref=1 / me_range=24 / chroma_me=1 / trellis=2 / 8x8dct=1 / cqm=0 / deadzone=21,11 / fast_pskip=1 / chroma_qp_offset=-3 / threads=34 / lookahead_threads=5 / sliced_threads=0 / nr=150 / decimate=1 / interlaced=0 / bluray_compat=0 / constrained_intra=0 / bframes=8 / b_pyramid=2 / b_adapt=2 / b_bias=0 / direct=3 / weightb=1 / open_gop=0 / weightp=2 / keyint=120 / keyint_min=61 / scenecut=0 / intra_refresh=0 / rc_lookahead=120 / rc=crf / mbtree=1 / crf=18.0 / qcomp=0.60 / qpmin=0 / qpmax=69 / qpstep=4 / vbv_maxrate=15000 / vbv_bufsize=31250 / crf_max=0.0 / nal_hrd=vbr / filler=0 / ip_ratio=1.40 / aq=3:1.00

Язык : English

По умолчанию : Да

Принудительно : Нет

Цветовой диапазон : Limited

Основные цвета : BT.709

Характеристики трансфера : BT.709

Коэффициенты матрицы : BT.709

Аудио #1

Идентификатор : 2

Формат : AC-3

Формат/Информация : Audio Coding 3

Идентификатор кодека : A_AC3

Продолжительность : 1 ч. 22 м.

Вид битрейта : Постоянный

Битрейт : 192 Кбит/сек

Каналы : 2 канала

Расположение каналов : Front: L R

Частота : 48,0 КГц

Частота кадров : 31,250 кадров/сек (1536 SPF)

Битовая глубина : 16 бит

Метод сжатия : С потерями

Размер потока : 114 Мбайт (1%)

Заголовок : AVO | Л. Володарский

Язык : Russian

По умолчанию : Да

Принудительно : Нет

Аудио #2

Идентификатор : 3

Формат : E-AC-3

Формат/Информация : Enhanced Audio Coding 3

Идентификатор кодека : A_EAC3

Продолжительность : 1 ч. 22 м.

Вид битрейта : Постоянный

Битрейт : 224 Кбит/сек

Каналы : 2 канала

Расположение каналов : Front: L R

Частота : 48,0 КГц

Частота кадров : 187,500 кадров/сек (256 SPF)

Метод сжатия : С потерями

Размер потока : 133 Мбайт (2%)

Заголовок : Original

Язык : English

По умолчанию : Нет

Принудительно : Нет

Текст

Идентификатор : 4

Формат : UTF-8

Идентификатор кодека : S_TEXT/UTF8

Идентификатор кодека/Информация : UTF-8 Plain Text

Язык : English

По умолчанию : Нет

Принудительно : Нет
• Исходник видео WEB-DL Amazon.
Сборка: pb.wtf



Скачать Агенты ФБР через торрент https://c.radikal.ru/c19/1808/51/ff25291804e0.png Скачать, смотреть онлайн Агенты ФБР бесплантно в хорошем качестве О фильме: Подруги проходят курс обучения в школе ФБР. Джанис должна научиться быть крутой, чтобы без страха надевать наручники на ... 5 10 1
Торрент: Зарегистрирован [2018-09-01 13:58] · скачан: 7 раз
Статус: √ проверено
Размер: 7.83 GB
Как cкачать? Как скачать Агенты ФБР через торрент | UTorrent

28-11-2019 20:33  

Отключить всю рекламу на сайте

    Дорогой пользователь! Огромная просьба, поблагодарите релизера, оцените раздачу и оставьте свои комментарий, если Вы скачали Агенты ФБР через торрент бесплатно!
    Комментировать посты могут только пользователи прошедшие не сложную регистрацию
    Показать сообщения:    

    Агенты ФБР через торрент
    Скачать бесплатно Агенты ФБР
    Агенты ФБР скачать торрент
    Агенты ФБР смотреть онлайн
    Cкачать фильм Агенты ФБР бесплатно
    Агенты ФБР скачать торрент в хорошем качестве
    Агенты ФБР смотреть онлайн бесплатно в хорошем качестве


    Вы не можете начинать темы
    Вы не можете отвечать на сообщения
    Вы не можете редактировать свои сообщения
    Вы не можете удалять свои сообщения
    Вы не можете голосовать в опросах
    Вы не можете прикреплять файлы к сообщениям
    Вы можете скачивать файлы