Всегда рабочее зеркало без VPN и Proxy просто перед .vidak.icu напиши любое слово или цифру, Пример http://hzzm.vidak.icu

MVO

MVO

1 сезон

1

1 сезон

iTunes

1 сезон

13

1 сезон

Deluxe

pack

Рекомендуем

Repack

30

ВАЖНО

RePack

MK11

RePack

jed

RePack

fifa19

RePack

RDR2

RePack

NEED FOR SPEED™ PAYBACK

Кинопоиск HD

6 сезон

 Острые козырьки 6 сезон

Все сериалы

все сериалы на PB.wtf

RePack

FAR CRY 5
  
Magnet ссылка

Всемирное природное наследие. Коста-Рика / World Natural Heritage: Costa Rica (Норберт Вандер) [2012 г., Документальный,HDTVRip, Профессиональный (одноголосый закадровый)] pb.wtf

Всемирное природное наследие. Коста-Рика через торрент pb.wtf

Размер: 3.34 GB | Добавлен: 3 года 11 мес. назад | Торрент скачан:16 раз
Смотреть онлайн Всемирное природное наследие. Коста-Рика | Скачать    Ребята, помогите собрать деньги на оплату серверов!!!

02-09-2018 13:34 Всемирное природное наследие. Коста-Рика Скачать торрент  

Всемирное природное наследие. Коста-Рика / World Natural Heritage: Costa Rica



Информация о фильме

Название: Всемирное природное наследие. Коста-Рика

Оригинальное название: World Natural Heritage: Costa Rica

Год выхода: 2012

Жанр: Документальный, путешествия, флора, фауна, видовой

Режиссер: Норберт Вандер

Страна: Германия

Студия: KSM GmbH

Продолжительность: 00:49:35

Перевод: Профессиональный (одноголосый закадровый)

О фильме:

Путешествие по Гунакасте - от побережья Тихого океана, через мангровые леса к тропическим джунглям Коста-Рики. Вы увидите игуан, ядовитых змей и обезьян-капуцинов в их естественной среде. Изюминкой экспедиции будет встреча с одним из последних первобытных коренных племен в мире. Индейцы Малеку жили в тропическом лесу в гармонии с природой на протяжении многих веков и до сих пор сохраняют свои традиции. В 1999 году ЮНЕСКО объявило Гуанакасте объектом Всемирного природного наследия. Территория включает в себя национальные парки Санта Роса, Гунакасте и Ринкон-де-ла-Вьеха. Присоединяйтесь к путешествию по одному из последних райских уголков мира.




Файл

Кодек: AVC/H.264

Качество: HDTV 1080i

Видео: 1920x1080 (16:9), 25 fps, AVC (x264), [email protected], 9244 kbps, 25fps, 0.178 bit/pixel

Звук: Русский 48 kHz, MPEG Layer 2, 2 ch, ~192.00 kbps avg

Семпл
Complete name : F:НаладкиВсемирное природное наследие_Коста-Рика.mkv

Format : Matroska

Format version : Version 4 / Version 2

File size : 3.34 GiB

Duration : 49 min 35 s

Overall bit rate : 9 628 kb/s

Encoded date : UTC 2018-09-02 05:31:49

Writing application : mkvmerge v6.6.0 ('The Edge Of The In Between') built on Dec 1 2013 17:55:00

Writing library : libebml v1.3.0 + libmatroska v1.4.1

Video

ID : 1

Format : AVC

Format/Info : Advanced Video Codec

Format profile : [email protected]

Format settings : CABAC / 4 Ref Frames

Format settings, CABAC : Yes

Format settings, ReFrames : 4 frames

Codec ID : V_MPEG4/ISO/AVC

Duration : 49 min 35 s

Bit rate : 9 244 kb/s

Width : 1 920 pixels

Height : 1 080 pixels

Display aspect ratio : 16:9

Frame rate mode : Constant

Frame rate : 25.000 FPS

Standard : Component

Color space : YUV

Chroma subsampling : 4:2:0

Bit depth : 8 bits

Scan type : Interlaced

Scan type, store method : Separated fields

Scan order : Top Field First

Bits/(Pixel*Frame) : 0.178

Stream size : 3.20 GiB (96%)

Default : Yes

Forced : No

Color range : Limited

Color primaries : BT.709

Transfer characteristics : BT.709

Matrix coefficients : BT.709

Audio

ID : 2

Format : MPEG Audio

Format version : Version 1

Format profile : Layer 2

Codec ID : A_MPEG/L2

Codec ID/Hint : MP2

Duration : 49 min 35 s

Bit rate mode : Constant

Bit rate : 192 kb/s

Channel(s) : 2 channels

Sampling rate : 48.0 kHz

Compression mode : Lossy

Stream size : 68.1 MiB (2%)

Language : Russian

Default : Yes

Forced : No
скриншот  скриншот  скриншот  
pb.wtf



Скачать Всемирное природное наследие. Коста-Рика через торрент http://i99.fastpic.ru/big/2018/0902/6c/b64c4bb5459df6b364140a5960dc876c.jpg Скачать, смотреть онлайн Всемирное природное наследие. Коста-Рика бесплантно в хорошем качестве О фильме:Путешествие по Гунакасте - от побережья Тихого океана, через мангровые леса к тропическим джунглям Коста-Рики. Вы увидите игуан, ... 10 10 2
Info! Золотая раздача, скачанное не засчитывается.
Торрент: Зарегистрирован [2018-09-02 13:34] · скачан: 16 раз
Статус: √ проверено
Размер: 3.34 GB
Как cкачать? Как скачать Всемирное природное наследие. Коста-Рика через торрент | UTorrent

28-11-2019 20:33  

Отключить вcю реклaмy на сайте

    Дорогой пользователь! Огромная просьба, поблагодарите релизера, оцените раздачу и оставьте свои комментарий, если Вы скачали Всемирное природное наследие. Коста-Рика через торрент бесплатно!
    Комментировать посты могут только пользователи прошедшие не сложную регистрацию
    Показать сообщения:    

    Всемирное природное наследие. Коста-Рика через торрент
    Скачать бесплатно Всемирное природное наследие. Коста-Рика
    Всемирное природное наследие. Коста-Рика скачать торрент
    Всемирное природное наследие. Коста-Рика смотреть онлайн
    Cкачать фильм Всемирное природное наследие. Коста-Рика бесплатно
    Всемирное природное наследие. Коста-Рика скачать торрент в хорошем качестве
    Всемирное природное наследие. Коста-Рика смотреть онлайн бесплатно в хорошем качестве


    Вы не можете начинать темы
    Вы не можете отвечать на сообщения
    Вы не можете редактировать свои сообщения
    Вы не можете удалять свои сообщения
    Вы не можете голосовать в опросах
    Вы не можете прикреплять файлы к сообщениям
    Вы можете скачивать файлы