Лицензия

MVO

1

1 сезон

Лицензия

Лицензия

13

MVO

1 сезон

Deluxe Edition

pack

Рекомендуем

30

Repack

ВАЖНО

ВАЖНО

Ghostwire

RePack

jed

RePack

fifa19

RePack

RDR2

RePack

NEED FOR SPEED™ PAYBACK

RePack

Кинопоиск HD

 Острые козырьки 6 сезон

6 сезон

FAR CRY 6

RePack

Лицензия

MVO

1

1 сезон

1 сезон

Лицензия

  

Плохие парни / Bad Boys (Майкл Бэй) [1995, Боевик, комедия, драма, криминал, UHD BD Remux 2160p] [HDR] DUB+MVO+3xAVO+VO

Плохие парни через торрент pb.wtf

Размер: 64.93 GB | Добавлен: 4 года назад | Торрент скачан:92 раза
Смотреть онлайн Плохие парни | Скачать   

04-09-2018 08:06 Плохие парни Скачать торрент  

Плохие парни / Bad Boys
Год выпуска: 1995
Страна: США
Жанр: Боевик, комедия, драма, криминал
Продолжительность: 01:58:51
Перевод: Дублированный, Профессиональный многоголосый, Авторский, Профессиональный одноголосый
Субтитры: Русские, английские (Full, SDH)

Режиссер: Майкл Бэй

rating

В ролях:

Уилл Смит, Мартин Лоуренс, Лиза Бойл, Майкл Талиферро, Эммануель Ксереб, Чеки Карио, Теа Леони, Марк Маколей, Ральф Гонсалес, Вик Манни, Фрэнк Джон Хьюз, Майк Киртон, Уилл Никербоксер, Тереза Рэндл, Тиффани Сэмюэлс, Кори Ходжес, Скотт Камбербэтч, Анна Левайн-Томпсон, Джои Романо, Сэм Эйерс, Джо Пантолиано

Описание:

Они — полная противоположность друг друга. Один из них — примерный семьянин и не имеет состояния, другой богат и пользуется всеми благами холостяцкой жизни. Помимо дружбы их объединяет работа в полиции.

Их новое задание — поймать жестокого преступника, укравшего наркотики с секретного склада, а также спасти девушку, которая случайно оказалась на его пути. Но для этого друзьям придется поменяться местами…

Качество: UHD BD Remux 2160p | HDR
Формат: MKV

Видео: HEVC HDR, 64.3 Mбит/с, 3840x2160, 23.976 кадр/с
Аудио#1: Русский (AC3, 6 ch, 640 Кбит/с) / Дублированный (Blu-ray EUR)
Аудио#2: Русский (AC3, 2 ch, 192 Кбит/с) / Профессиональный многоголосый (R5)
Аудио#3: Русский (DTS, 6 ch, 755 Кбит/с) / Авторский (А.Гаврилов)
Аудио#4: Русский (DTS-HD MA, 6 ch, 3840 Кбит/с) / Авторский (В.Завгородний)
Аудио#5: Русский (DTS-HD MA, 6 ch, 3840 Кбит/с) Авторский (М.Яроцкий)
Аудио#6: Русский (AC3, 2 ch, 192 Кбит/с) / Профессиональный одноголосый (Диктор CDV)
Аудио#7: Английский (TrueHD+Atmos, 8 ch, 3750 Кбит/с)
Аудио#8: Английский (AC3, 6 ch, 640 Кбит/с)
скриншот  скриншот  скриншот  скриншот  скриншот  

General
Unique ID : 282557214467527144812585316256310768722 (0xD4928A3FB48E512DFA25B1AA04DA3452)
Complete name : D:uTorrentBad.Boys.1995.BDRemux.2160p.HDR.MediaClub.mkv
Format : Matroska
Format version : Version 4 / Version 2
File size : 64.9 GiB
Duration : 1 h 58 min
Overall bit rate mode : Variable
Overall bit rate : 78.2 Mb/s
Encoded date : UTC 2018-09-03 19:13:57
Writing application : mkvmerge v25.0.0 ('Prog Noir') 64-bit
Writing library : libebml v1.3.6 + libmatroska v1.4.9
Cover : Yes
Attachments : cover.jpg

Video
ID : 1
Format : HEVC
Format/Info : High Efficiency Video Coding
Commercial name : HDR10
Format profile : Main [email protected]@High
Codec ID : V_MPEGH/ISO/HEVC
Duration : 1 h 58 min
Bit rate : 64.3 Mb/s
Width : 3 840 pixels
Height : 2 160 pixels
Display aspect ratio : 16:9
Frame rate mode : Constant
Frame rate : 23.976 (24000/1001) FPS
Color space : YUV
Chroma subsampling : 4:2:0 (Type 2)
Bit depth : 10 bits
Bits/(Pixel*Frame) : 0.323
Stream size : 53.4 GiB (82%)
Title : BDRemux.2160p.HDR by Silverok
Default : Yes
Forced : No
Color range : Limited
Color primaries : BT.2020
Transfer characteristics : PQ
Matrix coefficients : BT.2020 non-constant
Mastering display color primaries : Display P3
Mastering display luminance : min: 0.0050 cd/m2, max: 4000 cd/m2
Maximum Content Light Level : 6239 cd/m2
Maximum Frame-Average Light Level : 4864 cd/m2

Audio #1
ID : 2
Format : AC-3
Format/Info : Audio Coding 3
Codec ID : A_AC3
Duration : 1 h 58 min
Bit rate mode : Constant
Bit rate : 640 kb/s
Channel(s) : 6 channels
Channel positions : Front: L C R, Side: L R, LFE
Sampling rate : 48.0 kHz
Frame rate : 31.250 FPS (1536 SPF)
Bit depth : 16 bits
Compression mode : Lossy
Stream size : 544 MiB (1%)
Title : Профессиональный (дублированный) BD EUR
Language : Russian
Service kind : Complete Main
Default : Yes
Forced : No

Audio #2
ID : 3
Format : AC-3
Format/Info : Audio Coding 3
Codec ID : A_AC3
Duration : 1 h 58 min
Bit rate mode : Constant
Bit rate : 192 kb/s
Channel(s) : 2 channels
Channel positions : Front: L R
Sampling rate : 48.0 kHz
Frame rate : 31.250 FPS (1536 SPF)
Bit depth : 16 bits
Compression mode : Lossy
Stream size : 163 MiB (0%)
Title : Профессиональный (многоголосый закадровый) R5
Language : Russian
Service kind : Complete Main
Default : No
Forced : No

Audio #3
ID : 4
Format : DTS
Format/Info : Digital Theater Systems
Codec ID : A_DTS
Duration : 1 h 58 min
Bit rate mode : Constant
Bit rate : 755 kb/s
Channel(s) : 6 channels
Channel positions : Front: L C R, Side: L R, LFE
Sampling rate : 48.0 kHz
Frame rate : 93.750 FPS (512 SPF)
Bit depth : 24 bits
Compression mode : Lossy
Stream size : 641 MiB (1%)
Title : Авторский (одноголосый закадровый) А.Гаврилов
Language : Russian
Default : No
Forced : No

Audio #4
ID : 5
Format : DTS
Format/Info : Digital Theater Systems
Format profile : MA / Core
Codec ID : A_DTS
Duration : 1 h 58 min
Bit rate mode : Variable / Constant
Bit rate : 3 840 kb/s / 1 509 kb/s
Channel(s) : 6 channels
Channel positions : Front: L C R, Side: L R, LFE
Sampling rate : 48.0 kHz
Frame rate : 93.750 FPS (512 SPF)
Bit depth : 24 bits
Compression mode : Lossless / Lossy
Stream size : 3.19 GiB (5%)
Title : Авторский (одноголосый закадровый) В.Завгородний
Language : Russian
Default : No
Forced : No

Audio #5
ID : 6
Format : DTS
Format/Info : Digital Theater Systems
Format profile : MA / Core
Codec ID : A_DTS
Duration : 1 h 58 min
Bit rate mode : Variable / Constant
Bit rate : 3 840 kb/s / 1 509 kb/s
Channel(s) : 6 channels
Channel positions : Front: L C R, Side: L R, LFE
Sampling rate : 48.0 kHz
Frame rate : 93.750 FPS (512 SPF)
Bit depth : 24 bits
Compression mode : Lossless / Lossy
Stream size : 3.19 GiB (5%)
Title : Авторский (одноголосый закадровый) М.Яроцкий
Language : Russian
Default : No
Forced : No

Audio #6
ID : 7
Format : AC-3
Format/Info : Audio Coding 3
Codec ID : A_AC3
Duration : 1 h 58 min
Bit rate mode : Constant
Bit rate : 192 kb/s
Channel(s) : 2 channels
Channel positions : Front: L R
Sampling rate : 48.0 kHz
Frame rate : 31.250 FPS (1536 SPF)
Bit depth : 16 bits
Compression mode : Lossy
Stream size : 163 MiB (0%)
Title : Авторский (одноголосый закадровый) Диктор CDV
Language : Russian
Service kind : Complete Main
Default : No
Forced : No

Audio #7
ID : 8
Format : TrueHD
Format profile : TrueHD+Atmos / TrueHD
Codec ID : A_TRUEHD
Duration : 1 h 58 min
Bit rate mode : Variable
Bit rate : 3 750 kb/s
Maximum bit rate : 5 721 kb/s
Channel(s) : Object Based / 8 channels
Channel positions : Object Based / Front: L C R, Side: L R, Back: L R, LFE
Sampling rate : / 48.0 kHz
Frame rate : 1 200.000 FPS (40 SPF)
Compression mode : Lossless
Stream size : 3.11 GiB (5%)
Language : English
Default : No
Forced : No

Audio #8
ID : 9
Format : AC-3
Format/Info : Audio Coding 3
Codec ID : A_AC3
Duration : 1 h 58 min
Bit rate mode : Constant
Bit rate : 640 kb/s
Channel(s) : 6 channels
Channel positions : Front: L C R, Side: L R, LFE
Sampling rate : 48.0 kHz
Frame rate : 31.250 FPS (1536 SPF)
Bit depth : 16 bits
Compression mode : Lossy
Stream size : 544 MiB (1%)
Language : English
Service kind : Complete Main
Default : No
Forced : No

Text #1
ID : 10
Format : UTF-8
Codec ID : S_TEXT/UTF8
Codec ID/Info : UTF-8 Plain Text
Duration : 1 h 54 min
Bit rate : 102 b/s
Count of elements : 1733
Stream size : 85.4 KiB (0%)
Title : Full
Language : Russian
Default : Yes
Forced : No

Text #2
ID : 11
Format : UTF-8
Codec ID : S_TEXT/UTF8
Codec ID/Info : UTF-8 Plain Text
Duration : 1 h 54 min
Bit rate : 66 b/s
Count of elements : 1656
Stream size : 56.0 KiB (0%)
Title : Full
Language : English
Default : No
Forced : No

Text #3
ID : 12
Format : UTF-8
Codec ID : S_TEXT/UTF8
Codec ID/Info : UTF-8 Plain Text
Duration : 1 h 57 min
Bit rate : 80 b/s
Count of elements : 1968
Stream size : 69.4 KiB (0%)
Title : SDH
Language : English
Default : No
Forced : No

Menu
00:00:00.000 : en:
00:05:07.472 : en:
00:12:01.971 : en:
00:17:38.098 : en:
00:23:33.203 : en:
00:31:31.764 : en:
00:41:09.132 : en:
00:47:35.310 : en:
00:54:37.357 : en:
01:04:05.675 : en:
01:13:49.800 : en:
01:20:21.483 : en:
01:27:58.523 : en:
01:34:54.271 : en:
01:43:09.308 : en:
01:50:51.353 : en:




Скачать Плохие парни через торрент https://b.radikal.ru/b35/1809/3c/e116b715760b.jpg Скачать, смотреть онлайн Плохие парни бесплантно в хорошем качестве Описание: Они — полная противоположность друг друга. Один из них — примерный семьянин и не имеет состояния, другой богат и пользуется всеми ... 10 10 6
Торрент: Зарегистрирован [2018-09-04 08:06] · скачан: 92 раз
Статус: √ проверено
Размер: 64.93 GB
Как cкачать? Как скачать Плохие парни через торрент | UTorrent

% Раздел Тема Автор DL S | L
Ultra HD (UHD: 2K, 4K, 8K) [ 51.1 GB ] Плохие парни / Bad Boys | DUB + MVO + 5xAVO | 2160p sheker187 Скачать
1 | 0
Фильмы (WEB-DL 720p, 1080p) [ 22.03 GB ] Плохие парни 2 / Bad Boys II | MVO+DVO+ 2xAVO+VO | 1080p bober100 Скачать
1 | 0
Ultra HD (UHD: 2K, 4K, 8K) [ 39.4 GB ] Плохие парни 2 / Bad Boys II | DUB | 2160p sheker187 Скачать
1 | 0
Ultra HD (UHD: 2K, 4K, 8K) [ 70.5 GB ] Плохие парни 2 / Bad Boys II | Лицензия | BD Remux 2160p bober100 Скачать
1 | 0
Фильмы [HD 720p, 1080p] (Хороший звук DUB, MVO) [ 10.79 GB ] Плохие парни 2 / Bad Boys II | DUB+MVO+2xAVO | 1080p, (10 bit bober100 Скачать
1 | 0

28-11-2019 20:33  

Отключить вcю реклaмy на сайте

    Дорогой пользователь! Огромная просьба, поблагодарите релизера, оцените раздачу и оставьте свои комментарий, если Вы скачали Плохие парни через торрент бесплатно!!
    Комментировать посты могут только пользователи прошедшие не сложную регистрацию
    Показать сообщения:    


    Плохие парни через торрент
    Скачать бесплатно Плохие парни
    Плохие парни скачать торрент
    Плохие парни смотреть онлайн
    Cкачать фильм Плохие парни бесплатно
    Плохие парни скачать торрент в хорошем качестве
    Плохие парни смотреть онлайн бесплатно в хорошем качестве
    Вы не можете начинать темы
    Вы не можете отвечать на сообщения
    Вы не можете редактировать свои сообщения
    Вы не можете удалять свои сообщения
    Вы не можете голосовать в опросах
    Вы не можете прикреплять файлы к сообщениям
    Вы можете скачивать файлы