Лицензия

MVO

1

1 сезон

Лицензия

Лицензия

13

MVO

1 сезон

Ultimate

pack

Рекомендуем

30

Repack

ВАЖНО

ВАЖНО

Ghostwire

RePack

jed

RePack

fifa19

RePack

RDR2

RePack

NEED FOR SPEED™ PAYBACK

RePack

Кинопоиск HD

 Острые козырьки 6 сезон

6 сезон

FAR CRY 6

RePack

Лицензия

MVO

1

1 сезон

1 сезон

Лицензия

  

8 подруг Оушена / Ocean's Eight (Гэри Росс) [2018, боевик, триллер, комедия, UHD BDRemux 2160p] Дубляж - [Лицензия]

8 подруг Оушена через торрент pb.wtf

Размер: 48.2 GB | Добавлен: 4 года назад | Торрент скачан:43 раза
Смотреть онлайн 8 подруг Оушена | Скачать   

05-09-2018 08:01 8 подруг Оушена Скачать торрент  

8 подруг Оушена / Ocean's Eight«Украдут не только ваше внимание»
Год выпуска: 2018
Страна: США
Жанр: боевик, триллер, комедия, криминал
Продолжительность: 01:50:09
Перевод: Дубляж - [Лицензия]
Субтитры: Русские, английские, украинские
Режиссер: Гэри Росс
В ролях:

Сандра Буллок (Debbie Ocean), Кейт Бланшетт (Lou), Энн Хэтэуэй (Daphne Kluger), Хелена Бонем Картер (Rose Weil), Рианна (Nine Ball), Сара Полсон (Tammy), Минди Кейлинг (Amita), Ричард Армитедж (Claude Becker), Аквафина (Constance), Гриффин Данн (Parole Board Officer), Дирдри Гудвин (Prison Guard), Даниэлла Раббани (Bergdorf Salesperson)
Описание:
Пять лет, восемь месяцев, 12 дней... и далее. Именно столько Дебби Оушен разрабатывала план величайшего ограбления своей жизни.
Рейтинг:

MPAA: PG-13 - Детям до 13 лет просмотр не желателен
Качество: UHD BDRemux 2160p
Формат: MKV
Видео: HEVC, HDR, 58345 Кбит/с, 3840x2160, 23.976 Кадр/c
Аудио 1: русский AC3, 6 ch, 640 Кбит/с
Аудио 2: украинский AC3, 2 ch, 160 Кбит/
Аудио 3: английский TrueHD, 8 ch, 2782 Кбит/c
Аудио 4: английский AC3, 6 ch, 640 Кбит/с
Навигация по главам: есть
General
Unique ID : 53025648275279299284867391227515660350 (0x27E45E4E5FB6ED1D40C160C6342C683E)
Complete name : F:\Видосики\Ocean's.2018.bdremuX.216Op.werecut.PROD.mkv
Format : Matroska
Format version : Version 4 / Version 2
File size : 48.2 GiB
Duration : 1 h 50 min
Overall bit rate mode : Variable
Overall bit rate : 62.6 Mb/s
Movie name : Ocean's Eight 2018 OT werecut PROD.
Encoded date : UTC 2018-09-05 06:29:03
Writing application : mkvmerge v24.0.0 ('Beyond The Pale') 64-bit
Writing library : libebml v1.3.6 + libmatroska v1.4.9

Video
ID : 1
Format : HEVC
Format/Info : High Efficiency Video Coding
Commercial name : HDR10
Format profile : Main [email protected]@High
Codec ID : V_MPEGH/ISO/HEVC
Duration : 1 h 50 min
Bit rate : 58.3 Mb/s
Width : 3 840 pixels
Height : 2 160 pixels
Display aspect ratio : 16:9
Frame rate mode : Constant
Frame rate : 23.976 (24000/1001) FPS
Color space : YUV
Chroma subsampling : 4:2:0 (Type 2)
Bit depth : 10 bits
Bits/(Pixel*Frame) : 0.293
Stream size : 44.9 GiB (93%)
Default : Yes
Forced : No
Color range : Limited
Color primaries : BT.2020
Transfer characteristics : PQ
Matrix coefficients : BT.2020 non-constant
Mastering display color pri : Display P3
Mastering display luminance : min: 0.0050 cd/m2, max: 4000 cd/m2
Maximum Content Light Level : 1360 cd/m2
Maximum Frame-Average Light : 92 cd/m2

Audio #1
ID : 2
Format : AC-3
Format/Info : Audio Coding 3
Commercial name : Dolby Digital
Codec ID : A_AC3
Duration : 1 h 50 min
Bit rate mode : Constant
Bit rate : 640 kb/s
Channel(s) : 6 channels
Channel layout : L R C LFE Ls Rs
Sampling rate : 48.0 kHz
Frame rate : 31.250 FPS (1536 SPF)
Bit depth : 16 bits
Compression mode : Lossy
Stream size : 504 MiB (1%)
Language : Russian
Service kind : Complete Main
Default : Yes
Forced : Yes

Audio #2
ID : 3
Format : AC-3
Format/Info : Audio Coding 3
Commercial name : Dolby Digital
Codec ID : A_AC3
Duration : 1 h 50 min
Bit rate mode : Constant
Bit rate : 160 kb/s
Channel(s) : 2 channels
Channel layout : L R
Sampling rate : 48.0 kHz
Frame rate : 31.250 FPS (1536 SPF)
Bit depth : 16 bits
Compression mode : Lossy
Stream size : 126 MiB (0%)
Language : Ukrainian
Service kind : Complete Main
Default : No
Forced : No

Audio #3
ID : 4
Format : MLP FBA 16-ch
Format/Info : Meridian Lossless Packing FBA with 16-channel presentation
Commercial name : TrueHD with Dolby Atmos
Codec ID : A_TRUEHD
Duration : 1 h 50 min
Bit rate mode : Variable
Bit rate : 2 782 kb/s
Maximum bit rate : 4 275 kb/s
Channel(s) : 8 channels
Channel layout : L R C LFE Ls Rs Lb Rb
Sampling rate : 48.0 kHz
Frame rate : 1 200.000 FPS (40 SPF)
Compression mode : Lossless
Stream size : 2.14 GiB (4%)
Language : English
Default : No
Forced : No
Number of dynamic objects : 11
Bed channel count : 1 channel
Bed channel configuration : LFE

Audio #4
ID : 5
Format : AC-3
Format/Info : Audio Coding 3
Commercial name : Dolby Digital
Codec ID : A_AC3
Duration : 1 h 50 min
Bit rate mode : Constant
Bit rate : 640 kb/s
Channel(s) : 6 channels
Channel layout : L R C LFE Ls Rs
Sampling rate : 48.0 kHz
Frame rate : 31.250 FPS (1536 SPF)
Bit depth : 16 bits
Compression mode : Lossy
Stream size : 504 MiB (1%)
Language : English
Service kind : Complete Main
Default : No
Forced : No

Text #1
ID : 6
Format : UTF-8
Codec ID : S_TEXT/UTF8
Codec ID/Info : UTF-8 Plain Text
Duration : 1 h 43 min
Bit rate : 7 b/s
Count of elements : 110
Stream size : 5.79 KiB (0%)
Language : Russian
Default : Yes
Forced : Yes

Text #2
ID : 7
Format : UTF-8
Codec ID : S_TEXT/UTF8
Codec ID/Info : UTF-8 Plain Text
Duration : 1 h 49 min
Bit rate : 107 b/s
Count of elements : 1381
Stream size : 86.3 KiB (0%)
Language : Russian
Default : No
Forced : No

Text #3
ID : 8
Format : UTF-8
Codec ID : S_TEXT/UTF8
Codec ID/Info : UTF-8 Plain Text
Duration : 1 h 47 min
Bit rate : 7 b/s
Count of elements : 114
Stream size : 5.64 KiB (0%)
Title : Forced
Language : Ukrainian
Default : No
Forced : No

Text #4
ID : 9
Format : UTF-8
Codec ID : S_TEXT/UTF8
Codec ID/Info : UTF-8 Plain Text
Duration : 1 h 43 min
Bit rate : 66 b/s
Count of elements : 1778
Stream size : 50.7 KiB (0%)
Title : Full
Language : English
Default : No
Forced : No

Text #5
ID : 10
Format : UTF-8
Codec ID : S_TEXT/UTF8
Codec ID/Info : UTF-8 Plain Text
Duration : 1 h 49 min
Bit rate : 69 b/s
Count of elements : 1762
Stream size : 55.7 KiB (0%)
Title : SDH
Language : English
Default : No
Forced : No

Menu
00:00:00.000 : en:00:00:00.000
00:11:18.261 : en:00:11:18.261
00:20:06.747 : en:00:20:06.747
00:31:37.104 : en:00:31:37.104
00:41:29.612 : en:00:41:29.612
00:49:18.914 : en:00:49:18.914
00:56:22.296 : en:00:56:22.296
01:05:50.071 : en:01:05:50.071
01:16:32.546 : en:01:16:32.546
01:27:01.174 : en:01:27:01.174
01:35:42.153 : en:01:35:42.153
01:44:08.659 : en:01:44:08.659



Скачать 8 подруг Оушена через торрент https://d.radikal.ru/d37/1809/58/ab3a07e7c0f9.jpg Скачать, смотреть онлайн 8 подруг Оушена бесплантно в хорошем качестве Описание: Пять лет, восемь месяцев, 12 дней... и далее. Именно столько Дебби Оушен разрабатывала план величайшего ограбления своей жизни.✦ ... 10 10 2
Торрент: Зарегистрирован [2018-09-05 08:01] · скачан: 43 раз
Статус: √ проверено
Размер: 48.2 GB
Как cкачать? Как скачать 8 подруг Оушена через торрент | UTorrent

% Раздел Тема Автор DL S | L
Ultra HD (UHD: 2K, 4K, 8K) [ 45.44 GB ] 8 подруг Оушена / Ocean's Eight | Дубляж | 2160p sheker187 Скачать
1 | 0
Фильмы (Blu-ray, BD-Remux, HDDVD) [ 31.33 GB ] 8 подруг Оушена / Ocean's Eight | Лицензия | 1080p bober100 Скачать
1 | 0
Фильмы 2018 [DVDrip, WEB-DLRip, HDrip] (DUB, MVO) [ 1.46 GB ] 8 подруг Оушена / Ocean's Eight | Лицензия | BDRip от Twi7ter Twi7ter Скачать
2 | 0
Фильмы 2018 [DVDrip, WEB-DLRip, HDrip] (DUB, MVO) [ 2.18 GB ] 8 подруг Оушена / Ocean's Eight | Лицензия | BDRip от Twi7ter Twi7ter Скачать
2 | 0
Ultra HD (UHD: 2K, 4K, 8K) [ 34.91 GB ] 8 подруг Оушена / Ocean's Eight | DUB | 2160p sheker187 Скачать
1 | 0
Ultra HD (UHD: 2K, 4K, 8K) [ 17.19 GB ] 8 подруг Оушена / Ocean's Eight | DUB | 2160p sheker187 Скачать
1 | 0
Фильмы 2018 [DVDrip, WEB-DLRip, HDrip] (DUB, MVO) [ 747 MB ] 8 подруг Оушена / Ocean's Eight | Лицензия BD EUR | HDRip bober100 Скачать
1 | 0

28-11-2019 20:33  

Отключить вcю реклaмy на сайте

    Дорогой пользователь! Огромная просьба, поблагодарите релизера, оцените раздачу и оставьте свои комментарий, если Вы скачали 8 подруг Оушена через торрент бесплатно!!
    Комментировать посты могут только пользователи прошедшие не сложную регистрацию
    Показать сообщения:    


    8 подруг Оушена через торрент
    Скачать бесплатно 8 подруг Оушена
    8 подруг Оушена скачать торрент
    8 подруг Оушена смотреть онлайн
    Cкачать фильм 8 подруг Оушена бесплатно
    8 подруг Оушена скачать торрент в хорошем качестве
    8 подруг Оушена смотреть онлайн бесплатно в хорошем качестве
    Вы не можете начинать темы
    Вы не можете отвечать на сообщения
    Вы не можете редактировать свои сообщения
    Вы не можете удалять свои сообщения
    Вы не можете голосовать в опросах
    Вы не можете прикреплять файлы к сообщениям
    Вы можете скачивать файлы