Ссылка на приватное зеркало нашего сайта всего за 1$. Внимание количество ограничено!!!

2 сезон

iTunes

1 сезон

1

iTunes

iTunes

iTunes

1 сезон

RePack

30

ИГРА 18+

pack

ВАЖНО

!!Акция!!

Alien_RageХит недели

RePack

MK11
pack

Забери бонус

RePack

jed

!!Акция!!

Alien_Rage

RePack

fifa19

RePack

Assassins Creed: Odyssey

RePack

NEED FOR SPEED™ PAYBACK

4 сезон

9 сезон

Бесстыжие 9 сезон

Все сериалы

все сериалы на PB.wtf

RePack

FAR CRY 5
  

Старожил (Искандер Хамраев) [1961, СССР, детский, комедия, VHSRip от AVP Studio] pb.wtf

Старожил через торрент pb.wtf

Размер: 746 MB | Добавлен: 2 года 1 мес. назад | Торрент скачан:14 раз
Скачать  

05-09-2018 08:41 Старожил Скачать торрент  

Старожил
Страна: СССР
Производство: Ленфильм

Жанр: детский, комедия
Год выпуска: 1961
Продолжительность: 01:12:14

Перевод: Не требуется
Cубтитры: нет
Оригинальная аудиодорожка: русский

Режиссер: Искандер Хамраев

В ролях:
Виктор Перевалов, Толя Архипов, Миша Екимов, Валя Нехнаева, Саша Арцимович, Валентина Романова, Нелли Лазарева, Николай Харитонов...
Об актёрах подробней

Описание:
Андрей Крутиков (Виктор Перевалов) был первым ребенком, родившимся в поселке строителей гидростанции. И жители поселка назвали улицу его именем. Шли годы, рос молодой город. Вырос и Андрей — озорником, вруном и страшным выдумщиком. Но вот в его классе появился новый мальчик, Боря Скалов. Невольно Андрей начал подражать серьезному ответственному Борису, и сам не заметил, что жизнь его стала меняться.

Исходник: VHS
Качество видео: VHSRip
Формат видео: AVI

Видео: 704x528 (4:3), 25,000 кадров/сек, XviD ~ 1306 kbps avg, 0.141 bit/pixel
Аудио: 48 kHz, MP3 2.0, 128 kbps

Раздача от:
Общее
Полное имя : Starozhil.1961.VHSRip_[New-team]_by_AVP_Studio.avi
Формат : AVI
Формат/Информация : Audio Video Interleave
Размер файла : 746 Мбайт
Продолжительность : 1 ч. 12 м.
Общий поток : 1444 Кбит/сек
Программа кодирования : VirtualDubMod 1.5.10.3 | www.virtualdub-fr.org || (build 2550/release)
Библиотека кодирования : VirtualDubMod build 2550/release

Видео
Идентификатор : 0
Формат : MPEG-4 Visual
Профиль формата : Advanced Simple@L5
Настройки формата : BVOP1 / Custom Matrix
Параметр BVOP формата : 1
Параметр QPel формата : Нет
Параметр GMC формата : Без точки перехода
Параметр матрицы формата : Выборочная
Идентификатор кодека : XVID
Идентификатор кодека/Подсказка : XviD
Продолжительность : 1 ч. 12 м.
Битрейт : 1306 Кбит/сек
Ширина : 704 пикселя
Высота : 528 пикселей
Соотношение сторон : 4:3
Частота кадров : 25,000 кадров/сек
Цветовое пространство : YUV
Субдискретизация насыщенности : 4:2:0
Битовая глубина : 8 бит
Тип развёртки : Прогрессивная
Метод сжатия : С потерями
Бит/(Пиксели*Кадры) : 0.141
Размер потока : 675 Мбайт (90%)
Библиотека кодирования : XviD 73

Аудио
Идентификатор : 1
Формат : MPEG Audio
Версия формата : Version 1
Профиль формата : Layer 3
Идентификатор кодека : 55
Идентификатор кодека/Подсказка : MP3
Продолжительность : 1 ч. 12 м.
Вид битрейта : Постоянный
Битрейт : 128 Кбит/сек
Каналы : 2 канала
Частота : 48,0 КГц
Частота кадров : 41,667 кадра/сек (1152 SPF)
Метод сжатия : С потерями
Размер потока : 66,1 Мбайт (9%)
Выравнивание : Соединение по промежуткам
Продолжительность промежутка : 40 мс. (1,00 видеокадр)
Время предзагрузки промежутка : 504 мс.
Библиотека кодирования : LAME3.99r
Настройки программы : -m s -V 4 -q 2 -lowpass 17 -b 128
pb.wtf



Скачать Старожил через торрент http://picplus.ru/img/1809/05/78e62bcb.png Скачать фильм Старожил через торрент бесплантно в хорошем качестве Описание:Андрей Крутиков (Виктор Перевалов) был первым ребенком, родившимся в поселке строителей гидростанции. И жители поселка назвали ... 5 10 1
Info! Золотая раздача, скачанное не засчитывается.
Торрент: Зарегистрирован [2018-09-05 08:41] · скачан: 14 раз
Статус: √ проверено
Размер: 746 MB
Как cкачать? Как скачать Старожил через торрент | qTorrent

% Раздел Тема Автор DL S | L
Детские отечественные фильмы [ 1.09 GB ] Старожил [1961 СССР детский VHSRip-AVC от AVP Studio] AVP Studio Скачать
1 | 0

28-11-2019 20:33  

Отключить всю рекламу на сайте

05-09-2018 10:16 Старожил Скачать торрент  

Топик был перенесен из форума Кино СССР в форум Детские отечественные фильмы


bober100pb.wtf



    Дорогой пользователь! Огромная просьба, поблагодарите релизера, оцените раздачу и оставьте свои комментарий, если Вы скачали Старожил через торрент бесплатно! Внесите свою лепту в развитие PiratBit!
    Комментировать посты могут только пользователи прошедшие не сложную регистрацию
    Показать сообщения:    

    Старожил через торрент
    Скачать бесплатно Старожил
    Старожил скачать торрент
    Старожил смотреть онлайн
    Cкачать фильм Старожил бесплатно
    Старожил скачать торрент в хорошем качестве
    Старожил смотреть онлайн бесплатно в хорошем качестве


    Вы не можете начинать темы
    Вы не можете отвечать на сообщения
    Вы не можете редактировать свои сообщения
    Вы не можете удалять свои сообщения
    Вы не можете голосовать в опросах
    Вы не можете прикреплять файлы к сообщениям
    Вы можете скачивать файлы