Ссылка на приватное зеркало нашего сайта всего за 1$. Внимание количество ограничено!!!

2 сезон

iTunes

1 сезон

1

iTunes

iTunes

iTunes

1 сезон

RePack

30

ИГРА 18+

pack

ВАЖНО

!!Акция!!

Alien_RageХит недели

RePack

MK11
pack

Забери бонус

RePack

jed

!!Акция!!

Alien_Rage

RePack

fifa19

RePack

Assassins Creed: Odyssey

RePack

NEED FOR SPEED™ PAYBACK

4 сезон

9 сезон

Бесстыжие 9 сезон

Все сериалы

все сериалы на PB.wtf

RePack

FAR CRY 5
  

Радбод / Redbad (Роэль Рейн) [2018, история, военный, WEB-DL 720p] MVO [@MUZOBOZ@] pb.wtf

Радбод через торрент pb.wtf

Раздают: 1 [ 0 KB/s ]
Размер: 6.16 GB | Добавлен: 2 года 1 мес. назад | Торрент скачан:236 раз
Скачать  

18-09-2018 16:02 Радбод Скачать торрент  

Радбод / Redbad
Год выпуска: 2018
Страна: Нидерланды
Жанр: история, военный
Продолжительность: 02:43:22
Перевод: Любительский (многоголосый) | @MUZOBOZ@
Субтитры: отсутствуют

Режиссер: Роэль Рейн

rating

В ролях:

Джонатан Бэнкс, Рене Саутендейк, Сёрен Маллинг, Хуб Стапель, Дерек де Линт, Лоэс Хаверкорт, Лиза Смит, Гийс Нейбр, Петер Фабер, Эгберт Ян Вебер

Описание:

В 754 году н.э., во время безжалостной кровопролитной войны, родилась легенда о новом предводителе язычников, Радбоде, но в тот же момент, у Франков появилось новое оружие: христианство. Радбоду придётся приложить все силы, чтобы собрать армию Викингов, способную разбить, казалось бы, непобедимого врага.

Качество: WEB-DL 720p
Формат: MKV

Видео: h.264,5 016 kb/s, 1280x536
Аудио: Русский, (AC3, 2 ch, 384 Кбит/с)
скриншот  скриншот  скриншот  

Общее
Уникальный идентификатор : 237659266289340553495425113311833757242 (0xB2CB827F06D7D6EDB157B66CD320163A)
Полное имя : D:\Redbad.2O18.P.WEB-DL.72Op_KOSHARA.mkv
Формат : Matroska
Версия формата : Version 2
Размер файла : 6,16 Гбайт
Продолжительность : 2 ч. 43 м.
Режим общего битрейта : Переменный
Общий поток : 5402 Кбит/сек
Дата кодирования : UTC 2018-09-17 14:46:31
Программа кодирования : mkvmerge v8.3.0 ('Over the Horizon') 64bit
Библиотека кодирования : libebml v1.3.1 + libmatroska v1.4.2

Видео
Идентификатор : 1
Формат : AVC
Формат/Информация : Advanced Video Codec
Профиль формата : High@L4.1
Параметр CABAC формата : Да
Параметр RefFrames формата : 4 кадра
Идентификатор кодека : V_MPEG4/ISO/AVC
Продолжительность : 2 ч. 43 м.
Вид битрейта : Переменный
Битрейт : 5016 Кбит/сек
Максимальный битрейт : 5500 Кбит/сек
Ширина : 1280 пикселей
Высота : 536 пикселей
Соотношение сторон : 2,40:1
Режим частоты кадров : Постоянный
Частота кадров : 23,976 (24000/1001) кадра/сек
Стандарт вещания : Component
Цветовое пространство : YUV
Субдискретизация насыщенности : 4:2:0
Битовая глубина : 8 бит
Тип развёртки : Прогрессивная
Бит/(Пиксели*Кадры) : 0.299
Размер потока : 5,60 Гбайт (91%)
Default : Да
Forced : Нет
Цветовой диапазон : Limited
Основные цвета : BT.709
Характеристики трансфера : BT.709
Коэффициенты матрицы : BT.709

Аудио
Идентификатор : 2
Формат : AC-3
Формат/Информация : Audio Coding 3
Расширение режима : CM (complete main)
Параметр Endianness формата : Big
Идентификатор кодека : A_AC3
Продолжительность : 2 ч. 43 м.
Вид битрейта : Постоянный
Битрейт : 384 Кбит/сек
Каналы : 2 канала
Расположение каналов : Front: L R
Частота : 48,0 КГц
Частота кадров : 31,250 кадров/сек (1536 spf)
Метод сжатия : С потерями
Размер потока : 449 Мбайт (7%)
Default : Да
Forced : Нет

pb.wtf



Скачать Радбод через торрент http://img11.lostpic.net/2018/09/18/c5dc6f91a328e747532dd0796975a9ed.jpg Скачать фильм Радбод через торрент бесплантно в хорошем качестве Описание: В 754 году н.э., во время безжалостной кровопролитной войны, родилась легенда о новом предводителе язычников, Радбоде, но в тот ... 10 10 7
Торрент: Зарегистрирован [2018-09-18 16:02] · скачан: 236 раз
Статус: T временная
Размер: 6.16 GB
Как cкачать? Как скачать Радбод через торрент | qTorrent

% Раздел Тема Автор DL S | L
T Фильмы (мультфильмы) cо спонсором показа (Новинки AVI/MKV) [ 2.74 GB ] Радбод / Redbad [2018 история военный WEB-DLRip] MVO [@MUZOBOZ@] bober100 Скачать
1 | 0
T Фильмы (мультфильмы) cо спонсором показа (Новинки AVI/MKV) [ 2.05 GB ] Радбод / Redbad [2018 история военный WEB-DLRip] MVO [@MUZOBOZ@] bober100 Скачать
2 | 0

28-11-2019 20:33  

Отключить всю рекламу на сайте

    Дорогой пользователь! Огромная просьба, поблагодарите релизера, оцените раздачу и оставьте свои комментарий, если Вы скачали Радбод через торрент бесплатно! Внесите свою лепту в развитие PiratBit!
    Комментировать посты могут только пользователи прошедшие не сложную регистрацию
    Показать сообщения:    

    Радбод через торрент
    Скачать бесплатно Радбод
    Радбод скачать торрент
    Радбод смотреть онлайн
    Cкачать фильм Радбод бесплатно
    Радбод скачать торрент в хорошем качестве
    Радбод смотреть онлайн бесплатно в хорошем качестве


    Вы не можете начинать темы
    Вы не можете отвечать на сообщения
    Вы не можете редактировать свои сообщения
    Вы не можете удалять свои сообщения
    Вы не можете голосовать в опросах
    Вы не можете прикреплять файлы к сообщениям
    Вы можете скачивать файлы