Всегда рабочее зеркало без VPN и Proxy просто перед .vidak.icu напиши любое слово или цифру, Пример http://li74.vidak.icu

Лицензия

MVO

1 сезон

1

1 сезон

iTunes

1 сезон

13

1 сезон

Deluxe

pack

Рекомендуем

Repack

30

ВАЖНО

RePack

MK11

RePack

jed

RePack

fifa19

RePack

RDR2

RePack

NEED FOR SPEED™ PAYBACK

Кинопоиск HD

6 сезон

 Острые козырьки 6 сезон

Все сериалы

все сериалы на PB.wtf

RePack

FAR CRY 5
  
Magnet ссылка

Девица / Damsel (Дэвид Зеллнер, Нэйтан Зеллнер) [2018, драма, комедия, вестерн, BDRip 1080p] 2xMVO [iTunes, HDRezka Studio] pb.wtf

Девица через торрент pb.wtf

Размер: 12.16 GB | Добавлен: 2 года 11 мес. назад | Торрент скачан:46 раз
Смотреть онлайн Девица | Скачать    Ребята, помогите собрать деньги на оплату серверов!!!

19-09-2018 16:03 Девица Скачать торрент  

Девица / Damsel
Год выпуска: 2018
Страна: США
Жанр: драма, комедия, вестерн
Продолжительность: 01:53:27
Перевод:

Профессиональный (многоголосый) | iTunes
Профессиональный (многоголосый, закадровый) | HDRezka Studio

Субтитры: Русские (полные), Английские (полные)

Режиссер: Дэвид Зеллнер, Нэйтан Зеллнер

rating

В ролях: Роберт Паттинсон, Миа Васиковска, Дэвид Зеллнер, Нэйтан Зеллнер, Роберт Форстер, Джозеф Биллинджир, Морган Ланд, Рэй Келлехер, Робин Адамс, Гэри Брукинс

Описание: Самуэль Алабастер - в меру нарциссичный педант с носовыми платочками и историями про похищенную негодяями невесту Пенелопу. Самуэль не умеет пить виски и даже войти в салун не может эффектно, запутавшись в ремне от гитары. Верный соратник ковбоя - Генри, выдающий себя за миссионера-проповедника. Когда-то посреди пустыни измученный жизнью пастор отдал ему потрепанную Библию и полное обмундирование священника. Проповеди Генри слушают разве что крабы - большую часть времени пастор валяется на пляже мертвецки пьяным. Да и девушку не нужно спасать от разбойников - Пенелопа метко стреляет из двустволки, умеет пользоваться динамитом, сама кого хочешь и спасет, и пристрелит.

Качество: BDRip 1080p
Формат: MKV

Видео: 1920x804 (2.40:1), 23,976 fps, x264 ~14.0 Mbps avg, 0.378 bit/pixel
Аудио #1: 48 kHz, AC3 Dolby Digital, 3/2 (L,C,R,l,r) + LFE ch, ~384.00 kbps avg | RUS (iTunes)
Аудио #2: 48 kHz, AC3 Dolby Digital, 2 (L,R) ch, ~192.00 kbps avg | RUS (HDRezka Studio)
Аудио #3: 48 kHz, DTS Digital Theater System, 3/2 (L,C,R,l,r) + LFE ch, ~768.00 kbps avg | ENG
скриншот  скриншот  скриншот  скриншот  скриншот  

Общее
Уникальный идентификатор : 123937340580575064982687577034949494655 (0x5D3D76AAE5B14BFEB62B7D689C79877F)
Полное имя : F:OlLanDGroupDamsel.2018.BDRip(1080p).OllanDGroup.mkv
Формат : Matroska
Версия формата : Version 4 / Version 2
Размер файла : 12,2 Гбайт
Продолжительность : 1 ч. 53 м.
Общий поток : 15,3 Мбит/сек
Название фильма : Damsel.2018 #TorpedoUK#
Дата кодирования : UTC 2019-08-24 19:08:38
Программа кодирования : mkvmerge v29.0.0 ('Like It Or Not') 64-bit
Библиотека кодирования : libebml v1.3.6 + libmatroska v1.4.9

Видео
Идентификатор : 1
Формат : AVC
Формат/Информация : Advanced Video Codec
Профиль формата : [email protected]
Параметр CABAC формата : Да
Параметр ReFrames формата : 5 кадров
Идентификатор кодека : V_MPEG4/ISO/AVC
Продолжительность : 1 ч. 53 м.
Битрейт : 14,0 Мбит/сек
Ширина : 1920 пикселей
Высота : 804 пикселя
Соотношение сторон : 2,40:1
Режим частоты кадров : Постоянный
Частота кадров : 23,976 (24000/1001) кадра/сек
Цветовое пространство : YUV
Субдискретизация насыщенности : 4:2:0
Битовая глубина : 8 бит
Тип развёртки : Прогрессивная
Бит/(Пиксели*Кадры) : 0.378
Размер потока : 11,1 Гбайт (91%)
Библиотека кодирования : x264 core 155 r2867+74 66b5600 t_mod_Custom_2 [[email protected] X86_64]
Настройки программы : cabac=1 / ref=5 / deblock=1:-3:-3 / analyse=0x3:0x133 / me=umh / subme=11 / psy=1 / fade_compensate=0.00 / psy_rd=1.05:0.00 / mixed_ref=1 / me_range=32 / chroma_me=1 / trellis=2 / 8x8dct=1 / cqm=0 / deadzone=21,11 / fast_pskip=0 / chroma_qp_offset=-2 / threads=18 / lookahead_threads=3 / sliced_threads=0 / nr=0 / decimate=0 / interlaced=0 / bluray_compat=0 / constrained_intra=0 / fgo=0 / bframes=9 / b_pyramid=2 / b_adapt=2 / b_bias=0 / direct=3 / weightb=1 / open_gop=0 / weightp=2 / keyint=250 / keyint_min=23 / scenecut=40 / intra_refresh=0 / rc=2pass / mbtree=0 / bitrate=14000 / ratetol=1.0 / qcomp=0.60 / qpmin=0:0:0 / qpmax=69:69:69 / qpstep=4 / cplxblur=20.0 / qblur=0.5 / ip_ratio=1.30 / pb_ratio=1.20 / aq=3:0.85 / aq-sensitivity=10.00 / aq-factor=1.00:1.00:1.00 / aq2=0 / aq3=0 / zones=37828,47188,b=1.5/134996,145940,b=1.5
Язык : English
Default : Да
Forced : Нет
Цветовой диапазон : Limited
Коэффициенты матрицы : BT.709

Аудио #1
Идентификатор : 2
Формат : AC-3
Формат/Информация : Audio Coding 3
Расширение режима : CM (complete main)
Параметр Endianness формата : Big
Идентификатор кодека : A_AC3
Продолжительность : 1 ч. 53 м.
Вид битрейта : Постоянный
Битрейт : 384 Кбит/сек
Каналы : 6 каналов
Расположение каналов : Front: L C R, Side: L R, LFE
Частота : 48,0 КГц
Частота кадров : 31,250 кадров/сек (1536 spf)
Битовая глубина : 16 бит
Метод сжатия : С потерями
Размер потока : 312 Мбайт (3%)
Заголовок : MVO [iTunes]
Язык : Russian
Default : Да
Forced : Нет

Аудио #2
Идентификатор : 3
Формат : AC-3
Формат/Информация : Audio Coding 3
Расширение режима : CM (complete main)
Параметр Endianness формата : Big
Идентификатор кодека : A_AC3
Продолжительность : 1 ч. 53 м.
Вид битрейта : Постоянный
Битрейт : 192 Кбит/сек
Каналы : 2 канала
Расположение каналов : Front: L R
Частота : 48,0 КГц
Частота кадров : 31,250 кадров/сек (1536 spf)
Битовая глубина : 16 бит
Метод сжатия : С потерями
Размер потока : 156 Мбайт (1%)
Заголовок : MVO [HDRezka Studio]
Язык : Russian
Default : Нет
Forced : Нет

Аудио #3
Идентификатор : 4
Формат : DTS
Формат/Информация : Digital Theater Systems
Режим : 16
Параметр Endianness формата : Big
Идентификатор кодека : A_DTS
Продолжительность : 1 ч. 53 м.
Вид битрейта : Постоянный
Битрейт : 768 Кбит/сек
Каналы : 6 каналов
Расположение каналов : Front: L C R, Side: L R, LFE
Частота : 48,0 КГц
Частота кадров : 93,750 кадра/сек (512 spf)
Битовая глубина : 24 бит
Метод сжатия : С потерями
Размер потока : 623 Мбайт (5%)
Заголовок : [Original]
Язык : English
Default : Нет
Forced : Нет

Текст #1
Идентификатор : 5
Формат : UTF-8
Идентификатор кодека : S_TEXT/UTF8
Идентификатор кодека/Информация : UTF-8 Plain Text
Продолжительность : 1 ч. 46 м.
Битрейт : 51 бит/сек
Count of elements : 898
Размер потока : 40,7 Кбайт (0%)
Заголовок : Full
Язык : Russian
Default : Нет
Forced : Нет

Текст #2
Идентификатор : 6
Формат : UTF-8
Идентификатор кодека : S_TEXT/UTF8
Идентификатор кодека/Информация : UTF-8 Plain Text
Продолжительность : 1 ч. 46 м.
Битрейт : 34 бит/сек
Count of elements : 915
Размер потока : 27,2 Кбайт (0%)
Заголовок : Full
Язык : English
Default : Нет
Forced : Нет

Меню
00:00:00.000 : :Chapter 01
00:08:49.654 : :Chapter 02
00:17:58.952 : :Chapter 03
00:22:05.782 : :Chapter 04
00:32:49.384 : :Chapter 05
00:42:13.989 : :Chapter 06
00:50:24.604 : :Chapter 07
01:00:40.178 : :Chapter 08
01:11:06.595 : :Chapter 09
01:22:24.898 : :Chapter 10
01:33:54.170 : :Chapter 11
01:41:26.997 : :Chapter 12
pb.wtf



Скачать Девица через торрент https://i90.fastpic.ru/big/2019/0824/c4/88f0dc264929f8665e390a5e3e52e3c4.jpg Скачать, смотреть онлайн Девица бесплантно в хорошем качестве Описание: Самуэль Алабастер - в меру нарциссичный педант с носовыми платочками и историями про похищенную негодяями невесту Пенелопу. ... 10 10 5
Торрент: Зарегистрирован [2019-08-24 20:12] · скачан: 46 раз
Статус: √ проверено
Размер: 12.16 GB
Как cкачать? Как скачать Девица через торрент | UTorrent

% Раздел Тема Автор DL S | L
Фильмы 2018 [DVDrip, WEB-DLRip, HDrip] (DUB, MVO) [ 2.23 GB ] Девица / Damsel [2018 BDRip-AVC] 2xMVO [ HDRezka Studio] bober100 Скачать
1 | 0
Фильмы [HD 720p, 1080p] (Хороший звук DUB, MVO) [ 5.82 GB ] Девица / Damsel [2018 BDRip 720p] 2xMVO [ HDRezka Studio] bober100 Скачать
1 | 0
Нетрадиционное порно [ 350 MB ] Девица С Околицы Связывает Вас так что Вы Можете Изнасиловать ее / Devious damsel ties you up so you can take her down. [HardcoreGangBang / Kink] [2013 Group Sex Anal DP Gang Bang Domination Hardcore. DVDRip Оригинал] [email protected] Скачать
1 | 0

28-11-2019 20:33  

Отключить вcю реклaмy на сайте

    Дорогой пользователь! Огромная просьба, поблагодарите релизера, оцените раздачу и оставьте свои комментарий, если Вы скачали Девица через торрент бесплатно!
    Комментировать посты могут только пользователи прошедшие не сложную регистрацию
    Показать сообщения:    

    Девица через торрент
    Скачать бесплатно Девица
    Девица скачать торрент
    Девица смотреть онлайн
    Cкачать фильм Девица бесплатно
    Девица скачать торрент в хорошем качестве
    Девица смотреть онлайн бесплатно в хорошем качестве


    Вы не можете начинать темы
    Вы не можете отвечать на сообщения
    Вы не можете редактировать свои сообщения
    Вы не можете удалять свои сообщения
    Вы не можете голосовать в опросах
    Вы не можете прикреплять файлы к сообщениям
    Вы можете скачивать файлы