Ссылка на приватное зеркало нашего сайта всего за 1$. Внимание количество ограничено!!!

2 сезон

iTunes

1 сезон

1

2 сезон

2 сезон

iTunes

1 сезон

RePack

30

Ultimate

ВАЖНО

ИГРА 18+

pack

RePack

MK11
pack

Забери бонус

RePack

jed

!!Акция!!

Alien_Rage

RePack

fifa19

RePack

Assassins Creed: Odyssey

RePack

NEED FOR SPEED™ PAYBACK

4 сезон

9 сезон

Бесстыжие 9 сезон

Все сериалы

все сериалы на PB.wtf

RePack

FAR CRY 5
  

Опер по вызову / Сезон: 3 / Серии: 1-24 из 24 (Тарас Ткаченко, Олександр Пархоменко) [2018, Детектив, криминал, WEB-DL 720p] pb.wtf

Опер по вызову через торрент pb.wtf

Размер: 16 GB | Добавлен: 2 года 2 мес. назад | Торрент скачан:28 раз
Скачать  

21-09-2018 20:47 Опер по вызову Скачать торрент  

Опер по вызовуГод выпуска: 2018
Страна: Украина
Жанр: Детектив, криминал
Продолжительность: ~ 00:48:00
Перевод: Не требуется
Субтитры: отсутствуют

Режиссер: Тарас Ткаченко, Олександр Пархоменко



В ролях:

Павел Вишняков, Слава Красовская, Артём Мартынишин, Александр Пожарский, Александр Игнатуша, Валентина Ищенко, Василий Черношкур, Иван Залуский, Дмитрий Гаврилов (II), Ася Белая, Богдан Олейник

Описание:

В новых эпизодах Павел Вишняков появится на экранах в совершенно новых ролях – массажиста, узника, адепта секты, агента безопасности. Кстати, один из эпизодов сериала снимали в настоящей тюрьме: "Одна из сцен напоминает фильм "Зеленая миля". Прошлый сезон поразил эффектными кадрами взрывов и пожаров. А вот в продолжении, зрителей ждут зрелищные драки и перестрелки.

Качество: WEB-DL 720p
Формат: MKV

Видео: MPEG-4 AVC, ~ 1762 Кбит/с, 1280x720
Аудио: AC3, 2 ch, 192 Кбит/с
скриншот  скриншот  скриншот  скриншот  

Общее
Уникальный идентификатор : 15328400456463762746544546130754628853 (0xB88247DC13BCDE5D8FA075800196CF5)
Полное имя : D:\Опер по вызову.s03.2018.WEB-DL (720p).by.Nicodem.Files-x\29.Опер по вызову.s03.E01.2018.WEB-DL (720p).by.Nicodem.Files-x.mkv
Формат : Matroska
Версия формата : Version 4 / Version 2
Размер файла : 698 Мбайт
Продолжительность : 48 м. 57 с.
Общий поток : 1994 Кбит/сек
Программа кодирования : Lavf56.36.100
Библиотека кодирования : Lavf56.36.100 / Lavf56.36.100

Видео
Идентификатор : 1
Формат : AVC
Формат/Информация : Advanced Video Codec
Профиль формата : High@L3.1
Параметр CABAC формата : Да
Параметр RefFrames формата : 3 кадра
Идентификатор кодека : V_MPEG4/ISO/AVC
Продолжительность : 48 м. 57 с.
Битрейт : 1762 Кбит/сек
Ширина : 1280 пикселей
Высота : 720 пикселей
Соотношение сторон : 16:9
Режим частоты кадров : Постоянный
Частота кадров : 25,000 кадров/сек
Цветовое пространство : YUV
Субдискретизация насыщенности : 4:2:0
Битовая глубина : 8 бит
Тип развёртки : Прогрессивная
Бит/(Пиксели*Кадры) : 0.076
Размер потока : 617 Мбайт (88%)
Default : Да
Forced : Нет

Аудио
Идентификатор : 2
Формат : AC-3
Формат/Информация : Audio Coding 3
Расширение режима : CM (complete main)
Параметр Endianness формата : Big
Идентификатор кодека : A_AC3
Продолжительность : 48 м. 57 с.
Вид битрейта : Постоянный
Битрейт : 192 Кбит/сек
Каналы : 2 канала
Расположение каналов : Front: L R
Частота : 48,0 КГц
Частота кадров : 31,250 кадров/сек (1536 spf)
Метод сжатия : С потерями
Размер потока : 67,2 Мбайт (10%)
Язык : unknown
Default : Да
Forced : Нет

pb.wtf



Скачать Опер по вызову через торрент http://i103.fastpic.ru/big/2018/0813/b1/fe4d481f7a642a7e1fed8329ca7570b1.jpg Скачать фильм Опер по вызову через торрент бесплантно в хорошем качестве Описание: В новых эпизодах Павел Вишняков появится на экранах в совершенно новых ролях – массажиста, узника, адепта секты, агента ... 10 10 2
Info! Серебряная раздача, засчитывается только 50% скачанного.
Торрент: Зарегистрирован [2018-09-21 20:47] · скачан: 28 раз
Статус: √ проверено
Размер: 16 GB
Как cкачать? Как скачать Опер по вызову через торрент | qTorrent

% Раздел Тема Автор DL S | L
Наши сериалы [ 14.41 GB ] Опер по вызову / Сезон: 3 / Серии: 1-24 из 24 [2018 WEB-DLRip-AVC] bober100 Скачать
1 | 0
Наши сериалы [ 14.08 GB ] Опер по вызову / Сезон: 3 / Серии: 1-24 из 24 [2018 WEB-DLRip] bober100 Скачать
1 | 0

28-11-2019 20:33  

Отключить всю рекламу на сайте

    Дорогой пользователь! Огромная просьба, поблагодарите релизера, оцените раздачу и оставьте свои комментарий, если Вы скачали Опер по вызову через торрент бесплатно! Внесите свою лепту в развитие PiratBit!
    Комментировать посты могут только пользователи прошедшие не сложную регистрацию
    Показать сообщения:    

    Опер по вызову через торрент
    Скачать бесплатно Опер по вызову
    Опер по вызову скачать торрент
    Опер по вызову смотреть онлайн
    Cкачать фильм Опер по вызову бесплатно
    Опер по вызову скачать торрент в хорошем качестве
    Опер по вызову смотреть онлайн бесплатно в хорошем качестве


    Вы не можете начинать темы
    Вы не можете отвечать на сообщения
    Вы не можете редактировать свои сообщения
    Вы не можете удалять свои сообщения
    Вы не можете голосовать в опросах
    Вы не можете прикреплять файлы к сообщениям
    Вы можете скачивать файлы