Всегда рабочее зеркало без VPN и Proxy просто перед .vidak.icu напиши любое слово или цифру, Пример http://6ovc.vidak.icu

Лицензия

MVO

1 сезон

1

1 сезон

iTunes

1 сезон

13

1 сезон

Deluxe

pack

Рекомендуем

Repack

30

ВАЖНО

RePack

MK11

RePack

jed

RePack

fifa19

RePack

RDR2

RePack

NEED FOR SPEED™ PAYBACK

Кинопоиск HD

6 сезон

 Острые козырьки 6 сезон

Все сериалы

все сериалы на PB.wtf

RePack

FAR CRY 5
  
Magnet ссылка

Принцесса Мононоке / Princess Mononoke / Mononoke Hime (Хаяо Миядзаки / Hayao Miyazaki) [1997, Япония, Приключения, фэнтези, драма, HDTVRip] DUB pb.wtf

Принцесса Мононоке через торрент pb.wtf

Раздают: 1 [ 0 KB/s ]
Размер: 2.17 GB | Добавлен: 9 лет 1 мес. назад | Торрент скачан:320 раз
Смотреть онлайн Принцесса Мононоке | Скачать    Ребята, помогите собрать деньги на оплату серверов!!!

18-06-2013 07:27 Принцесса Мононоке Скачать торрент  

Принцесса Мононоке / Princess Mononoke / Mononoke Hime
Страна: Япония
Год выпуска: 1997
Жанр: Приключения, фэнтези, драма
Продолжительность: 02:13:44
Перевод: Профессиональный (дублированный)
Субтитры: Нет / Без хардсаба

Режиссер: Хаяо Миядзаки / Hayao Miyazaki

Описание: Юный принц Аситака, убив вепря, навлек на себя смертельное проклятие. Старая знахарка предсказала ему, что только он сам способен изменить свою судьбу. И отважный воин отправился в опасное путешествие. Так он оказался в загадочной стране, где люди под предводительством злой госпожи Эбоси воевали с обитателями леса: духами, демонами и гигантскими существами, каких Аситака раньше никогда не видел.
И была с ними принцесса Мононоке — повелительница зверей и дочь волчицы. Теперь судьба всех зависит только от одного воина — принца Аситака…
Фильм, поражающий своей неоднозначностью, в котором трудно разобраться кто из героев хороший, а кто плохой. Отрицательные герои встают на сторону добра, а положительные – полны внутренней ненависти, злобы.
Вечная борьба человека с природой ради собственной выгоды, героизм и предательство, любовь и ненависть, вражда и вновь зарождающиеся светлые чувства – всё смешалось в этом фантастическом фильме. Прекрасный полнометражный мультфильм для семейного просмотра, в котором взрослые почерпнут для себя мудрость восточной философии, а дети будут в восторге от захватывающих приключений.

Качество: HDTVRip
Контейнер: AVI
Видео кодек: XviD
Аудио кодек: AC3
Видео: 720x400 (1.80:1), 23.976 fps, XviD build 50 ~1868 kbps avg, 0.27 bit/pixel
Аудио: 48 kHz, AC3 Dolby Digital, 3/2 (L,C,R,l,r) + LFE ch, ~448 kbps
Раздача от:
D:Мои рипы. Вторая частьPrincessa.Mononoke.1997.HDTVRip.D.2.18Gb.[YTN]_by_dexter_lex.avi
General
Complete name : D:Мои рипы. Вторая частьPrincessa.Mononoke.1997.HDTVRip.D.2.18Gb.[YTN]_by_dexter_lex.avi
Format : AVI
Format/Info : Audio Video Interleave
Format profile : OpenDML
File size : 2.17 GiB
Duration : 2h 13mn
Overall bit rate : 2 327 Kbps
Writing application : VirtualDubMod 1.5.10.3 | www.virtualdub-fr.org || (build 2550/release)
Writing library : VirtualDubMod build 2550/release
Video #0
ID : 0
Format : MPEG-4 Visual
Format profile : Advanced [email protected]
Format settings, BVOP : 1
Format settings, QPel : No
Format settings, GMC : No warppoints
Format settings, Matrix : Custom
Codec ID : XVID
Codec ID/Hint : XviD
Duration : 2h 13mn
Bit rate : 1 868 Kbps
Width : 720 pixels
Height : 400 pixels
Display aspect ratio : 1.80:1
Frame rate : 23.976 fps
Color space : YUV
Chroma subsampling : 4:2:0
Bit depth : 8 bits
Scan type : Progressive
Compression mode : Lossy
Bits/(Pixel*Frame) : 0.271
Stream size : 1.75 GiB (80%)
Writing library : XviD 1.2.1 (UTC 2008-12-04)
Audio #1
ID : 1
Format : AC-3
Format/Info : Audio Coding 3
Mode extension : CM (complete main)
Format settings, Endianness : Big
Codec ID : 2000
Duration : 2h 13mn
Bit rate mode : Constant
Bit rate : 448 Kbps
Channel(s) : 6 channels
Channel positions : Front: L C R, Side: L R, LFE
Sampling rate : 48.0 KHz
Bit depth : 16 bits
Compression mode : Lossy
Stream size : 427 MiB (19%)
Alignment : Split accross interleaves
Interleave, duration : 42 ms (1.00 video frame)
Interleave, preload duration : 500 ms
pb.wtf



Скачать Принцесса Мононоке через торрент http://i48.fastpic.ru/big/2013/0616/88/f905737b0a308b39888660f026b2fb88.png Скачать, смотреть онлайн Принцесса Мононоке бесплантно в хорошем качестве Описание: Юный принц Аситака, убив вепря, навлек на себя смертельное проклятие. Старая знахарка предсказала ему, что только он сам способен ... 10 10 12
Info! Золотая раздача, скачанное не засчитывается.
Торрент: Зарегистрирован [2013-06-18 07:27] · скачан: 320 раз
Статус: √ проверено
Размер: 2.17 GB
Как cкачать? Как скачать Принцесса Мононоке через торрент | UTorrent

% Раздел Тема Автор DL S | L
Аниме [HD 720p, 1080p] [ 7.76 GB ] Принцесса Мононоке / Mononoke Hime / Princess Mononoke [1997 аниме BDRip 1080p] DUB еnvy Скачать
2 | 0
Аниме [DVDrip, WEB-DLRip, HDrip] [ 1.46 GB ] Принцесса Мононоке / Princess Mononoke / Mononoke Hime [1997 Япония DVDRip] DUB dexter lex Скачать
3 | 0
Аниме [DVDrip, WEB-DLRip, HDrip] [ 784 MB ] Принцесса Мононоке / Princess Mononoke / Mononoke Hime [1997 Япония DVDRip] DUB dexter lex Скачать
1 | 0

28-11-2019 20:33  

Отключить вcю реклaмy на сайте

18-06-2013 08:30 Принцесса Мононоке Скачать торрент  

такой же классный как Навсикая из долины ветров)pb.wtf



18-06-2013 09:50 Принцесса Мононоке Скачать торрент  

у этого рижесёра все хорошие мультфильмыpb.wtf



18-06-2013 19:41 Принцесса Мононоке Скачать торрент  

звук с середины фильма рассинхрон конкретный(( за релиз спс.pb.wtf



19-06-2013 05:00 Принцесса Мононоке Скачать торрент  

viktorius
Да рассихрон, не углядел. В эти дни перезалью.pb.wtf



24-06-2018 14:10 Принцесса Мононоке Скачать торрент  

Так и не перезалито, дикий рассинхрон после получасаpb.wtf



02-10-2018 10:11 Принцесса Мононоке Скачать торрент  

Прошло 5 лет и 3 месяца. Автор так и не исправил раздачу pb.wtf



    Дорогой пользователь! Огромная просьба, поблагодарите релизера, оцените раздачу и оставьте свои комментарий, если Вы скачали Принцесса Мононоке через торрент бесплатно!
    Комментировать посты могут только пользователи прошедшие не сложную регистрацию
    Показать сообщения:    

    Принцесса Мононоке через торрент
    Скачать бесплатно Принцесса Мононоке
    Принцесса Мононоке скачать торрент
    Принцесса Мононоке смотреть онлайн
    Cкачать фильм Принцесса Мононоке бесплатно
    Принцесса Мононоке скачать торрент в хорошем качестве
    Принцесса Мононоке смотреть онлайн бесплатно в хорошем качестве


    Вы не можете начинать темы
    Вы не можете отвечать на сообщения
    Вы не можете редактировать свои сообщения
    Вы не можете удалять свои сообщения
    Вы не можете голосовать в опросах
    Вы не можете прикреплять файлы к сообщениям
    Вы можете скачивать файлы