Ссылка на приватное зеркало всего за 1$. Внимание количество ограничено!!!

iTunes

1+1

iTunes

мы

WEB-DL

1

iTunes

Чернобыль

iTunes

Ральф против интернета

Лицензия

ПШазам

Лицензия

Оно 2

Лицензия

30
pack

Вам бонус

ВАЖНО

!!Акция!!

Alien_RageХит недели

RePack

Resident Evil 21

ИГРА 18+

pack

RePack

jed

!!Акция!!

Alien_Rage

RePack

fifa19

RePack

Assassins Creed: Odyssey

RePack

NEED FOR SPEED™ PAYBACK

3 сезон

9 сезон

Бесстыжие 9 сезон

Все сериалы

все сериалы на PB.wtf

RePack

FAR CRY 5
Ребята, катастрофически не хватает 1900р. для оплаты серверов за Октябрь (всвязи с блокировками трафик упал в 3 раза), 1-2р., выручайте.
  

Чужой бумажник (Глеб Комаровский) [1961, СССР, комедия, VHSRip от AVP Studio] pb.wtf

Чужой бумажник через торрент pb.wtf

Размер: 186 MB | Добавлен: 1 год 2 мес. назад | Торрент скачан:8 раз
Скачать  

10-10-2018 09:40 Чужой бумажник Скачать торрент  

Чужой бумажник
Страна: СССР
Производство: Мосфильм

Жанр: комедия
Год выпуска: 1961
Продолжительность: 00:17:03

Перевод: Не требуется
Cубтитры: нет
Оригинальная аудиодорожка: русский

Режиссер: Глеб Комаровский

В ролях:
Михаил Жаров, Александр Бениаминов, Нина Агапова, Павел Винник, Нина Гребешкова, Эль Трактовенко...
Об актёрах подробней

Описание:
Отдыхая в крымском санатории, Николай Никанорович Старосельцев находит на пляже чужой бумажник и отдает его администрации санатория для возврата владельцу. Став находкой для скучающих массовиков-затейников, Николай Никанорович не выдерживает испытание славой - и преждевременно покидает курорт.

Исходник: S-VHS
Качество видео: VHSRip
Формат видео: AVI

Видео: 704x480 (3:2), 25,000 кадров/сек, XviD ~ 1326 kbps avg, 0.157 bit/pixel
Аудио: 48 kHz, Dolby Digital AC3 2.0, 192 kbps

Раздача от:
Общее
Полное имя : CHuzhoy.bumazhnik.1961.VHSRip_[New-team]_by_AVP_Studio.avi
Формат : AVI
Формат/Информация : Audio Video Interleave
Размер файла : 186 Мбайт
Продолжительность : 17 м. 3 с.
Общий поток : 1527 Кбит/сек
Программа кодирования : VirtualDubMod 1.5.10.3 | www.virtualdub-fr.org || (build 2550/release)
Библиотека кодирования : VirtualDubMod build 2550/release

Видео
Идентификатор : 0
Формат : MPEG-4 Visual
Профиль формата : Advanced Simple@L5
Настройки формата : BVOP1 / Custom Matrix
Параметр BVOP формата : 1
Параметр QPel формата : Нет
Параметр GMC формата : Без точки перехода
Параметр матрицы формата : Выборочная
Идентификатор кодека : XVID
Идентификатор кодека/Подсказка : XviD
Продолжительность : 17 м. 3 с.
Битрейт : 1326 Кбит/сек
Ширина : 704 пикселя
Высота : 480 пикселей
Соотношение сторон : 3:2
Частота кадров : 25,000 кадров/сек
Цветовое пространство : YUV
Субдискретизация насыщенности : 4:2:0
Битовая глубина : 8 бит
Тип развёртки : Прогрессивная
Метод сжатия : С потерями
Бит/(Пиксели*Кадры) : 0.157
Размер потока : 162 Мбайт (87%)
Библиотека кодирования : XviD 73

Аудио
Идентификатор : 1
Формат : AC-3
Формат/Информация : Audio Coding 3
Коммерческое название : Dolby Digital
Идентификатор кодека : 2000
Продолжительность : 17 м. 3 с.
Вид битрейта : Постоянный
Битрейт : 192 Кбит/сек
Каналы : 2 канала
Channel layout : L R
Частота : 48,0 КГц
Частота кадров : 31,250 кадров/сек (1536 SPF)
Битовая глубина : 16 бит
Метод сжатия : С потерями
Размер потока : 23,4 Мбайт (13%)
Выравнивание : Разделение по промежуткам
Продолжительность промежутка : 40 мс. (1,00 видеокадр)
Время предзагрузки промежутка : 500 мс
pb.wtf



Скачать Чужой бумажник через торрент http://picplus.ru/img/1810/10/655240a3.png Скачать фильм Чужой бумажник через торрент бесплантно в хорошем качестве Описание:Отдыхая в крымском санатории, Николай Никанорович Старосельцев находит на пляже чужой бумажник и отдает его администрации ... 5 10 1
Info! Золотая раздача, скачанное не засчитывается.
Торрент: Зарегистрирован [2018-10-10 09:40] · скачан: 8 раз
Статус: √ проверено
Размер: 186 MB
Как cкачать? Как скачать Чужой бумажник через торрент | qTorrent

% Раздел Тема Автор DL S | L
Кино СССР [ 186 MB ] Чужой бумажник [1961 СССР VHSRip-AVC от AVP Studio] AVP Studio Скачать
1 | 0

28-11-2019 20:33  

Отключить всю рекламу на сайте

    Дорогой пользователь! Огромная просьба, поблагодарите релизера, оцените раздачу и оставьте свои комментарий, если Вы скачали Чужой бумажник через торрент бесплатно! Внесите свою лепту в развитие PiratBit!
    Комментировать посты могут только пользователи прошедшие не сложную регистрацию
    Показать сообщения:    

    Чужой бумажник через торрент
    Скачать бесплатно Чужой бумажник
    Чужой бумажник скачать торрент
    Чужой бумажник смотреть онлайн
    Cкачать фильм Чужой бумажник бесплатно
    Чужой бумажник скачать торрент в хорошем качестве
    Чужой бумажник смотреть онлайн бесплатно в хорошем качестве


    Вы не можете начинать темы
    Вы не можете отвечать на сообщения
    Вы не можете редактировать свои сообщения
    Вы не можете удалять свои сообщения
    Вы не можете голосовать в опросах
    Вы не можете прикреплять файлы к сообщениям
    Вы можете скачивать файлы