Всегда рабочее зеркало без VPN и Proxy просто перед .vidak.icu напиши любое слово или цифру, Пример http://u0s0.vidak.icu

MVO

Лицензия

1 сезон

1

1 сезон

iTunes

1 сезон

13

1 сезон

Deluxe

pack

Рекомендуем

Пиратка

30

ВАЖНО

RePack

MK11

RePack

jed

RePack

fifa19

RePack

RDR2

RePack

NEED FOR SPEED™ PAYBACK

Кинопоиск HD

6 сезон

 Острые козырьки 6 сезон

Все сериалы

все сериалы на PB.wtf

RePack

FAR CRY 5

Anonymous, нам критически не хватает 2100 руб. на оплату серверов и переферии за МАЙ, помоги нам пожалуйста, вся надежда только на тебя. В благодарность мы отключим тебе всю рекламу на сайте!

×
  
Magnet ссылка

Перевал (Алексей Сахаров) [1961, СССР, драма, SATRip от AVP Studio] pb.wtf

Перевал через торрент pb.wtf

Размер: 1.08 GB | Добавлен: 3 года 8 мес. назад | Торрент скачан:6 раз
Смотреть онлайн Перевал | Скачать    Ребята, помогите собрать деньги на оплату серверов!!!

18-10-2018 09:14 Перевал Скачать торрент  

Перевал
Страна: СССР
Производство: Киргизфильм

Жанр: драма
Год выпуска: 1961
Продолжительность: 01:15:13

Перевод: Не требуется
Cубтитры: нет
Оригинальная аудиодорожка: русский

Режиссер: Алексей Сахаров

В ролях:
И. Шалабаева, Идрис Ногайбаев, Бакен Кыдыкеева, Асанбек (Арсен) Умуралиев, Михаил Орлов, Канабек Байсеитов...
Об актёрах подробней

Описание:
По мотивам повести Ч.Айтматова «Тополек мой в красной косынке».
По гоpным дорогам Тянь-Шаня водит свою машину юный Данияр. Однажды, возвращаясь из рейса, он встречает Асель. Это знакомство становится для них началом большой любви. Данияр порывает свои отношения с бывшей подpугой красавицей Райхан и женится на Асель. Но однажды давно забытые отношения с Райхан возобновляются. Асель, узнав об измене мужа, уходит от него.

Исходник: DVB
Качество видео: SATRip
Формат видео: AVI

Видео: 704x528 (4:3), 25,000 кадров/сек, XviD ~ 1867 kbps avg, 0.201 bit/pixel
Аудио: 48 kHz, Dolby Digital AC3 2.0, 192 kbps

Раздача от:
Общее
Полное имя : Pereval.1961.SATRip_[New-team]_by_AVP_Studio.avi
Формат : AVI
Формат/Информация : Audio Video Interleave
Размер файла : 1,09 Гбайт
Продолжительность : 1 ч. 15 м.
Общий поток : 2069 Кбит/сек
Программа кодирования : VirtualDubMod 1.5.10.3 | www.virtualdub-fr.org || (build 2550/release)
Библиотека кодирования : VirtualDubMod build 2550/release

Видео
Идентификатор : 0
Формат : MPEG-4 Visual
Профиль формата : Advanced Simple@L5
Настройки формата : BVOP1 / Custom Matrix
Параметр BVOP формата : 1
Параметр QPel формата : Нет
Параметр GMC формата : Без точки перехода
Параметр матрицы формата : Выборочная
Идентификатор кодека : XVID
Идентификатор кодека/Подсказка : XviD
Продолжительность : 1 ч. 15 м.
Битрейт : 1867 Кбит/сек
Ширина : 704 пикселя
Высота : 528 пикселей
Соотношение сторон : 4:3
Частота кадров : 25,000 кадров/сек
Цветовое пространство : YUV
Субдискретизация насыщенности : 4:2:0
Битовая глубина : 8 бит
Тип развёртки : Прогрессивная
Метод сжатия : С потерями
Бит/(Пиксели*Кадры) : 0.201
Размер потока : 1007 Мбайт (90%)
Библиотека кодирования : XviD 73

Аудио
Идентификатор : 1
Формат : AC-3
Формат/Информация : Audio Coding 3
Коммерческое название : Dolby Digital
Идентификатор кодека : 2000
Продолжительность : 1 ч. 15 м.
Вид битрейта : Постоянный
Битрейт : 192 Кбит/сек
Каналы : 2 канала
Channel layout : L R
Частота : 48,0 КГц
Частота кадров : 31,250 кадров/сек (1536 SPF)
Битовая глубина : 16 бит
Метод сжатия : С потерями
Размер потока : 104 Мбайт (9%)
Выравнивание : Разделение по промежуткам
Продолжительность промежутка : 40 мс. (1,00 видеокадр)
Время предзагрузки промежутка : 500 мс
pb.wtf



Скачать Перевал через торрент http://picplus.ru/img/1810/18/5c17dfc8.png Скачать, смотреть онлайн Перевал бесплантно в хорошем качестве Описание:По мотивам повести Ч.Айтматова «Тополек мой в красной косынке».По гоpным дорогам Тянь-Шаня водит свою машину юный Данияр. Однажды, ... 5 10 1
Info! Золотая раздача, скачанное не засчитывается.
Торрент: Зарегистрирован [2018-10-18 09:14] · скачан: 6 раз
Статус: √ проверено
Размер: 1.08 GB
Как cкачать? Как скачать Перевал через торрент | UTorrent

% Раздел Тема Автор DL S | L
Зарубежные сериалы [ 5.67 GB ] Перевал / Der Pass / Pagan Peak / Сезон: 2 / Серии: 1-8 из 8 [2022 WEBRip 720p] [MVO] killermax2013 Скачать
1 | 0
Зарубежные сериалы [ 21.29 GB ] Перевал / Der Pass / Pagan Peak / Сезон: 2 / Серии: 1-8 из 8 [2022 WEB-DL 1080p] [MVO] + [DVO] killermax2013 Скачать
1 | 0
Зарубежные сериалы [ 12.27 GB ] Перевал / Der Pass / Pagan Peak / Сезон: 1 / Серии: 1-8 из 8 [2018 BDRip 1080p] [MVO] + [DVO] killermax2013 Скачать
2 | 0
TNT serials [ 5.58 GB ] Перевал Дятлова / Серии: 1-8 из 8 [2020 история BDRip] [GER Transfer / Blu-ray GER] bober100 Скачать
1 | 0
TNT serials [ 12.9 GB ] Перевал Дятлова / Сезон: 1 / Серии: 1-8 из 8 [2020 история WEBRip 1080p] killermax2013 Скачать
3 | 0
TNT serials [ 5.72 GB ] Перевал Дятлова / Серии: 1-8 из 8 + Фильм о фильме [2020 история WEBRip] bober100 Скачать
4 | 0
TNT serials [ 9.75 GB ] Перевал Дятлова / Серии: 1-8 из 8 + Фильм о фильме [2020 история WEBRip 720p] bober100 Скачать
2 | 0

28-11-2019 20:33  

Отключить всю рекламу на сайте

    Дорогой пользователь! Огромная просьба, поблагодарите релизера, оцените раздачу и оставьте свои комментарий, если Вы скачали Перевал через торрент бесплатно!
    Комментировать посты могут только пользователи прошедшие не сложную регистрацию
    Показать сообщения:    

    Перевал через торрент
    Скачать бесплатно Перевал
    Перевал скачать торрент
    Перевал смотреть онлайн
    Cкачать фильм Перевал бесплатно
    Перевал скачать торрент в хорошем качестве
    Перевал смотреть онлайн бесплатно в хорошем качестве


    Вы не можете начинать темы
    Вы не можете отвечать на сообщения
    Вы не можете редактировать свои сообщения
    Вы не можете удалять свои сообщения
    Вы не можете голосовать в опросах
    Вы не можете прикреплять файлы к сообщениям
    Вы можете скачивать файлы