Ссылка на приватное зеркало нашего сайта всего за 1$. Внимание количество ограничено!!!

2 сезон

iTunes

1 сезон

1

2 сезон

2 сезон

iTunes

1 сезон

RePack

30

Ultimate

ВАЖНО

ИГРА 18+

pack

RePack

MK11
pack

Забери бонус

RePack

jed

!!Акция!!

Alien_Rage

RePack

fifa19

RePack

Assassins Creed: Odyssey

RePack

NEED FOR SPEED™ PAYBACK

4 сезон

9 сезон

Бесстыжие 9 сезон

Все сериалы

все сериалы на PB.wtf

RePack

FAR CRY 5
  

Котовский / Серии: 1-8 из 8 (Станислав Назиров) [2010, Драма, приключения, история, BDRip 720p] pb.wtf

Котовский через торрент pb.wtf

Размер: 17.43 GB | Добавлен: 2 года 1 мес. назад | Торрент скачан:29 раз
Скачать  

22-10-2018 03:22 Котовский Скачать торрент  

Котовский
Год выпуска: 2010
Страна: Россия, Украина
Жанр: Драма, приключения, история
Продолжительность: ~ 00:44:00
Субтитры: отсутствуют

Режиссер: Станислав Назиров

rating

В ролях:

Владислав Галкин, Марина Александрова, Иван Стебунов, Александр Макогон, Максим Лагашкин, Андрей Гусев, Александр Пашутин, Алексей Горбунов, Сергей Цепов, Владимир Симонов

Описание:

Жизнь и обстоятельства гибели красного командира Григория Ивановича Котовского до сих пор окутаны тайной. Котовский — одна из наиболее ярких фигур Октябрьской революции. Необычайная смелость, отвага и разбойничья удаль создали легенды вокруг его имени. Потомок старинного польского аристократического рода, Котовский прошел большой революционный путь и стал признанным военным командиром: шесть раз он бежал из тюрьмы, был приговорен к смертной казни и вновь бежал, чтобы стать одним из самых пламенных воинов революции. Его знаменитая конная бригада билась с врагом под Киевом и Белой Церковью, у Николаева и Одессы, и нигде не знала поражений. Одесса, 1917 год. Атамана Григория Ивановича Котовского освобождают из тюрьмы. Встречают его друзья детства, в воспоминаниях Котовского сразу всплывают годы, проведенные в училище: уличные драки, мальчишеские разборки, промысел жульничеством и первая любовь. И вот Григорий Иванович сообщает друзьям, что его отправляют на фронт воевать за свободную Россию… В ретроспективах фильма зритель увидит Григория Котовского не только как военного командира и героя гражданской войны. Способность к настоящей дружбе и любовь, противостояние зависти, чувство долга и сложный выбор — личность Котовского и его богатый внутренний мир будут раскрываться зрителю постепенно.

Качество: BDRip 720p
Формат: MKV

Видео: MPEG-4 AVC, ~ 6 500 Kбит/с, 1280x720
Аудио: Русский (AC3, 6 ch, 448 Кбит/с)
скриншот   скриншот   скриншот   скриншот   скриншот  

скриншот   скриншот   скриншот  скриншот  скриншот  

Общее
Уникальный идентификатор : 237979182416760447797014270927170714079 (0xB3091F943D9C9EC480453F2B7C5439DF)
Полное имя : C:\Kotovskij.(8.serij.iz.8).2009.x264.BDRip.720p.mkv.HDClub\Kotovskij.(1.serija.iz.8).2009.x264.BDRip.720p.mkv
Формат : Matroska
Версия формата : Version 2
Размер файла : 2,18 Гбайт
Продолжительность : 44 м. 47 с.
Общий поток : 6966 Кбит/сек
Название фильма : Kotovskiy Ep01 (2009) - Release for HDCLUB
Дата кодирования : UTC 2010-05-13 20:58:11
Программа кодирования : mkvmerge v3.3.0 ('Language') built on Mar 24 2010 14:59:24
Библиотека кодирования : libebml v0.8.0 + libmatroska v0.9.0

Видео
Идентификатор : 1
Формат : AVC
Формат/Информация : Advanced Video Codec
Профиль формата : High@L4.1
Параметр CABAC формата : Да
Параметр RefFrames формата : 7 кадров
Идентификатор кодека : V_MPEG4/ISO/AVC
Продолжительность : 44 м. 47 с.
Битрейт : 6515 Кбит/сек
Ширина : 1280 пикселей
Высота : 720 пикселей
Соотношение сторон : 16:9
Режим частоты кадров : Постоянный
Частота кадров : 24,000 кадра/сек
Цветовое пространство : YUV
Субдискретизация насыщенности : 4:2:0
Битовая глубина : 8 бит
Тип развёртки : Прогрессивная
Бит/(Пиксели*Кадры) : 0.295
Размер потока : 2,00 Гбайт (92%)
Заголовок : Release for HDCLUB
Библиотека кодирования : x264 core 94 r1583 7608d73
Настройки программы : cabac=1 / ref=8 / deblock=1:-3:-3 / analyse=0x3:0x133 / me=umh / subme=9 / psy=1 / psy_rd=1.00:0.00 / mixed_ref=1 / me_range=32 / chroma_me=1 / trellis=2 / 8x8dct=1 / cqm=0 / deadzone=21,11 / fast_pskip=0 / chroma_qp_offset=-2 / threads=12 / sliced_threads=0 / nr=0 / decimate=1 / interlaced=0 / constrained_intra=0 / bframes=8 / b_pyramid=1 / b_adapt=2 / b_bias=0 / direct=3 / weightb=1 / weightp=2 / keyint=250 / keyint_min=25 / scenecut=40 / intra_refresh=0 / rc_lookahead=0 / rc=2pass / mbtree=0 / bitrate=6515 / ratetol=1.0 / qcomp=0.60 / qpmin=10 / qpmax=51 / qpstep=4 / cplxblur=20.0 / qblur=0.5 / vbv_maxrate=50000 / vbv_bufsize=62500 / ip_ratio=1.40 / pb_ratio=1.30 / aq=1:0.80 / nal_hrd=none
Язык : Russian
Default : Нет
Forced : Нет

Аудио
Идентификатор : 2
Формат : AC-3
Формат/Информация : Audio Coding 3
Расширение режима : CM (complete main)
Параметр Endianness формата : Big
Идентификатор кодека : A_AC3
Продолжительность : 44 м. 47 с.
Вид битрейта : Постоянный
Битрейт : 448 Кбит/сек
Каналы : 6 каналов
Расположение каналов : Front: L C R, Side: L R, LFE
Частота : 48,0 КГц
Частота кадров : 31,250 кадров/сек (1536 spf)
Метод сжатия : С потерями
Размер потока : 144 Мбайт (6%)
Заголовок : AC3 5.1 @ 448 kbps
Язык : Russian
Default : Да
Forced : Нет
pb.wtf



Скачать Котовский через торрент http://i33.fastpic.ru/big/2014/0202/74/a33529f00815e2c37370838afaefb374.jpg Скачать фильм Котовский через торрент бесплантно в хорошем качестве Описание: Жизнь и обстоятельства гибели красного командира Григория Ивановича Котовского до сих пор окутаны тайной. Котовский — одна из ... 10 10 4
Торрент: Зарегистрирован [2018-10-22 03:22] · скачан: 29 раз
Статус: √ проверено
Размер: 17.43 GB
Как cкачать? Как скачать Котовский через торрент | qTorrent

% Раздел Тема Автор DL S | L
Наши сериалы [ 7.47 GB ] Котовский [2009 история BDRip-AVC Оригинал] Бумер Скачать
1 | 0
Наши сериалы [ 41.42 GB ] Котовский [2009 история Blu-ray 1080p] SLAYERMADES Скачать
1 | 0
Наши сериалы [ 4.27 GB ] Котовский [2009 история DVDRip] / лицензия DEVI Скачать
1 | 0

28-11-2019 20:33  

Отключить всю рекламу на сайте

    Дорогой пользователь! Огромная просьба, поблагодарите релизера, оцените раздачу и оставьте свои комментарий, если Вы скачали Котовский через торрент бесплатно! Внесите свою лепту в развитие PiratBit!
    Комментировать посты могут только пользователи прошедшие не сложную регистрацию
    Показать сообщения:    

    Котовский через торрент
    Скачать бесплатно Котовский
    Котовский скачать торрент
    Котовский смотреть онлайн
    Cкачать фильм Котовский бесплатно
    Котовский скачать торрент в хорошем качестве
    Котовский смотреть онлайн бесплатно в хорошем качестве


    Вы не можете начинать темы
    Вы не можете отвечать на сообщения
    Вы не можете редактировать свои сообщения
    Вы не можете удалять свои сообщения
    Вы не можете голосовать в опросах
    Вы не можете прикреплять файлы к сообщениям
    Вы можете скачивать файлы