Всегда рабочее зеркало без VPN и Proxy просто перед .vidak.icu напиши любое слово или цифру, Пример http://40kw.vidak.icu

MVO

2 сезон

1 сезон

1

1 сезон

iTunes

2 сезон

13

1 сезон

Deluxe

pack

Рекомендуем

Пиратка

30

ВАЖНО

RePack

MK11

RePack

jed

RePack

fifa19

RePack

RDR2

RePack

NEED FOR SPEED™ PAYBACK

Кинопоиск HD

6 сезон

 Острые козырьки 6 сезон

Все сериалы

все сериалы на PB.wtf

RePack

FAR CRY 5

Anonymous, нам критически не хватает 5601 руб. на оплату серверов и переферии за Апрель, помоги нам пожалуйста, вся надежда только на тебя. В благодарность мы отключим тебе всю рекламу на сайте!

×
  
Magnet ссылка

Фильм любви и анархии, или Сегодня в десять утра на Виа деи Фьори / Film d'amore e d'anarchia (Лина Вертмюллер) [1973, драма, мелодрама, комедия, BDRip 1080p by msltel] AVO pb.wtf

Фильм любви и анархии, или Сегодня в десять утра на Виа деи Фьори через торрент pb.wtf

Размер: 18.39 GB | Добавлен: 3 года 7 мес. назад | Торрент скачан:3 раза
Смотреть онлайн Фильм любви и анархии, или Сегодня в десять утра на Виа деи Фьори | Скачать    Ребята, помогите собрать деньги на оплату серверов!!!

22-10-2018 10:38 Фильм любви и анархии, или Сегодня в десять утра на Виа деи Фьори Скачать торрент  

Название: Фильм любви и анархии, или Сегодня в десять утра на Виа деи Фьори в известном доме терпимости
Оригинальное название: Film d'amore e d'anarchia, ovvero «stamattina alle 10 in via dei Fiori nella nota casa di tolleranza...»
Год выпуска: 1973
Страна: Италия
Жанр: драма, мелодрама, комедия
Продолжительность: 02:05:49
Перевод: авторский

Режиссер: Лина Вертмюллер
В ролях: Джанкарло Джаннини, Марианджела Мелато, Эрос Паньи, Пина Чеи, Лина Полито, Елена Фьоре, Джулиана Каландра, Иза Беллини, Иза Даниэли, Энрика Бонаккорти, Анна Бонаюто, Анита Бранцанти, Мария Шакка, Анна Мелато, Джеа Линки, Анна Стивала, Жозиан Танцилли, Валерия Пьяджо

О фильме: В публичный дом в Риме из Парижа приезжает анархист с детскими испуганными глазами, всклокоченной головой и со множеством веснушек. Он приезжает к связной Саломее, которая работает там по специальности. Она должна помочь ему с убийством Бенито Муссолини и выдаёт его за своего кузена. Робкий парень в первый раз оказался в публичном доме...



Качество: BDRip 1080p
Формат: MKV
Видео: MPEG-4 AVC, 20 Mбит/с, 1920x1036, 24.000 кадр/с
Аудио 1: русский, AC3, 192 kbps, 1 ch, 48 kHz [авторский, Сергей Козлов]
Аудио 2: итальянский, DTS, 768 kbps, 1 ch, 48 kHz [оригинал]
Субтитры: английские
Главы/чаптеры
Общее
Уникальный идентификатор : 228161789158466540617036695083278240031 (0xABA65CB884AF1A0FB0FA9F036751891F)
Полное имя : D:\Video\Фильм любви и анархии.1973.BDRip 1080p by msltel.mkv
Формат : Matroska
Версия формата : Version 4
Размер файла : 18,4 Гбайт
Продолжительность : 2 ч. 5 м.
Общий поток : 20,9 Мбит/сек
Название фильма : Rip by msltel
Дата кодирования : UTC 2018-10-21 09:15:31
Программа кодирования : mkvmerge v8.2.0 ('World of Adventure') 64bit
Библиотека кодирования : libebml v1.3.1 + libmatroska v1.4.2

Видео
Идентификатор : 1
Формат : AVC
Формат/Информация : Advanced Video Codec
Профиль формата : High@L4.1
Настройки формата : CABAC / 4 Ref Frames
Параметр CABAC формата : Да
Параметр RefFrames формата : 4 кадра
Идентификатор кодека : V_MPEG4/ISO/AVC
Продолжительность : 2 ч. 5 м.
Битрейт : 20,0 Мбит/сек
Ширина : 1920 пикселей
Высота : 1036 пикселей
Соотношение сторон : 1,85:1
Режим частоты кадров : Постоянный
Частота кадров : 24,000 кадра/сек
Цветовое пространство : YUV
Субдискретизация насыщенности : 4:2:0
Битовая глубина : 8 бит
Тип развёртки : Прогрессивная
Бит/(Пиксели*Кадры) : 0.418
Размер потока : 17,5 Гбайт (95%)
Библиотека кодирования : x264 core 155 r2901 7d0ff22
Настройки программы : cabac=1 / ref=4 / deblock=1:-3:-2 / analyse=0x3:0x113 / me=umh / subme=11 / psy=1 / psy_rd=1.00:0.15 / mixed_ref=1 / me_range=32 / chroma_me=1 / trellis=2 / 8x8dct=1 / cqm=0 / deadzone=21,11 / fast_pskip=0 / chroma_qp_offset=-3 / threads=6 / lookahead_threads=1 / sliced_threads=0 / nr=0 / decimate=1 / interlaced=0 / bluray_compat=0 / constrained_intra=0 / bframes=16 / b_pyramid=2 / b_adapt=2 / b_bias=0 / direct=1 / weightb=1 / open_gop=0 / weightp=2 / keyint=230 / keyint_min=23 / scenecut=40 / intra_refresh=0 / rc_lookahead=40 / rc=crf / mbtree=1 / crf=17.5 / qcomp=0.60 / qpmin=0 / qpmax=69 / qpstep=4 / vbv_maxrate=62500 / vbv_bufsize=78125 / crf_max=0.0 / nal_hrd=none / filler=0 / ip_ratio=1.40 / aq=1:1.00
Язык : Italian
Default : Да
Forced : Нет

Аудио #1
Идентификатор : 2
Формат : AC-3
Формат/Информация : Audio Coding 3
Коммерческое название : Dolby Digital
Идентификатор кодека : A_AC3
Продолжительность : 2 ч. 5 м.
Вид битрейта : Постоянный
Битрейт : 192 Кбит/сек
Каналы : 1 канал
Channel layout : C
Частота : 48,0 КГц
Частота кадров : 31,250 кадров/сек (1536 SPF)
Битовая глубина : 16 бит
Метод сжатия : С потерями
Размер потока : 173 Мбайт (1%)
Заголовок : Сергей Козлов
Язык : Russian
ServiceKind/String : Complete Main
Default : Да
Forced : Нет

Аудио #2
Идентификатор : 3
Формат : DTS
Формат/Информация : Digital Theater Systems
Идентификатор кодека : A_DTS
Продолжительность : 2 ч. 5 м.
Вид битрейта : Постоянный
Битрейт : 768 Кбит/сек
Каналы : 1 канал
Channel layout : C
Частота : 48,0 КГц
Частота кадров : 93,750 кадра/сек (512 SPF)
Битовая глубина : 16 бит
Метод сжатия : С потерями
Размер потока : 691 Мбайт (4%)
Заголовок : original
Язык : Italian
Default : Нет
Forced : Нет

Текст
Идентификатор : 4
Формат : UTF-8
Идентификатор кодека : S_TEXT/UTF8
Идентификатор кодека/Информация : UTF-8 Plain Text
Продолжительность : 2 ч. 1 м.
Битрейт : 60 бит/сек
ElementCount : 1503
Размер потока : 53,7 Кбайт (0%)
Заголовок : английские
Язык : English
Default : Нет
Forced : Нет

Меню
00:00:00.000 : :Chapter 1
00:10:15.208 : :Chapter 2
00:18:49.833 : :Chapter 3
00:28:33.333 : :Chapter 4
00:40:36.583 : :Chapter 5
00:52:00.791 : :Chapter 6
01:02:49.958 : :Chapter 7
01:12:57.916 : :Chapter 8
01:20:28.125 : :Chapter 9
01:32:42.207 : :Chapter 10
01:43:58.958 : :Chapter 11
01:54:38.750 : :Chapter 12
02:05:49.125 : :Chapter 13
pb.wtf



Скачать Фильм любви и анархии, или Сегодня в десять утра на Виа деи Фьори через торрент https://c.radikal.ru/c19/1810/b8/16f70e221a6a.jpg Скачать, смотреть онлайн Фильм любви и анархии, или Сегодня в десять утра на Виа деи Фьори бесплантно в хорошем качестве О фильме: В публичный дом в Риме из Парижа приезжает анархист с детскими испуганными глазами, всклокоченной головой и со множеством ... 5 10 1
Info! Золотая раздача, скачанное не засчитывается.
Торрент: Зарегистрирован [2018-10-22 10:38] · скачан: 3 раз
Статус: √ проверено
Размер: 18.39 GB
Как cкачать? Как скачать Фильм любви и анархии, или Сегодня в десять утра на Виа деи Фьори через торрент | UTorrent

28-11-2019 20:33  

Отключить всю рекламу на сайте

    Дорогой пользователь! Огромная просьба, поблагодарите релизера, оцените раздачу и оставьте свои комментарий, если Вы скачали Фильм любви и анархии, или Сегодня в десять утра на Виа деи Фьори через торрент бесплатно!
    Комментировать посты могут только пользователи прошедшие не сложную регистрацию
    Показать сообщения:    

    Фильм любви и анархии, или Сегодня в десять утра на Виа деи Фьори через торрент
    Скачать бесплатно Фильм любви и анархии, или Сегодня в десять утра на Виа деи Фьори
    Фильм любви и анархии, или Сегодня в десять утра на Виа деи Фьори скачать торрент
    Фильм любви и анархии, или Сегодня в десять утра на Виа деи Фьори смотреть онлайн
    Cкачать фильм Фильм любви и анархии, или Сегодня в десять утра на Виа деи Фьори бесплатно
    Фильм любви и анархии, или Сегодня в десять утра на Виа деи Фьори скачать торрент в хорошем качестве
    Фильм любви и анархии, или Сегодня в десять утра на Виа деи Фьори смотреть онлайн бесплатно в хорошем качестве


    Вы не можете начинать темы
    Вы не можете отвечать на сообщения
    Вы не можете редактировать свои сообщения
    Вы не можете удалять свои сообщения
    Вы не можете голосовать в опросах
    Вы не можете прикреплять файлы к сообщениям
    Вы можете скачивать файлы