Ссылка на приватное зеркало нашего сайта всего за 1$. Внимание количество ограничено!!!

2 сезон

iTunes

1 сезон

1

iTunes

iTunes

iTunes

1 сезон

RePack

30

ИГРА 18+

pack

ВАЖНО

!!Акция!!

Alien_RageХит недели

RePack

MK11
pack

Забери бонус

RePack

jed

!!Акция!!

Alien_Rage

RePack

fifa19

RePack

Assassins Creed: Odyssey

RePack

NEED FOR SPEED™ PAYBACK

4 сезон

9 сезон

Бесстыжие 9 сезон

Все сериалы

все сериалы на PB.wtf

RePack

FAR CRY 5
  

Зло / Maligno (Пако Бардалес, Мартин Касапия Казанова) [2016, ужасы, детектив, WEB-DL 720p] MVO [КОЛОБОК] pb.wtf

Зло через торрент pb.wtf

Размер: 2.95 GB | Добавлен: 2 года назад | Торрент скачан:23 раза
Скачать  

23-10-2018 12:01 Зло Скачать торрент  

Зло / MalignoГод выпуска: 2016
Страна: Перу
Жанр: ужасы, детектив
Продолжительность: 01:26:55
Перевод: Любительский (многоголосый) | КОЛОБОК
Субтитры: отсутствуют

Режиссер: Пако Бардалес, Мартин Касапия Казанова

rating

В ролях:

София Роча, Фиорела Пеннано, Джино Песаресси, Сильвия Маджо, Гонсало Молина, Хуан Луис Мальдонадо, Фернандо Басилио, Марсело Ингунза, Джонни Асеведо, Аршана Альварадо

Описание:

В городской больнице открывается загадочный портал, и наружу вырывается древнее зло.

Качество: WEB-DL 720p
Формат: MKV

Видео: h.264,4 466 Кбит/с, 1280x720
Аудио#1: Русский, (AC3, 2 ch, 384 Кбит/с)
скриншот  скриншот  скриншот  

Общее
Уникальный идентификатор : 201520810453187553302344271729763427626 (0x979B7F0F4792434FADA33617715A252A)
Полное имя : D:\Maligno.2016.Pk.WEB_DL.72Op.mkv
Формат : Matroska
Версия формата : Version 2
Размер файла : 2,95 Гбайт
Продолжительность : 1 ч. 26 м.
Режим общего битрейта : Переменный
Общий поток : 4852 Кбит/сек
Дата кодирования : UTC 2018-10-15 08:33:30
Программа кодирования : mkvmerge v8.3.0 ('Over the Horizon') 64bit
Библиотека кодирования : libebml v1.3.1 + libmatroska v1.4.2

Видео
Идентификатор : 1
Формат : AVC
Формат/Информация : Advanced Video Codec
Профиль формата : High@L4.1
Параметр CABAC формата : Да
Параметр RefFrames формата : 4 кадра
Идентификатор кодека : V_MPEG4/ISO/AVC
Продолжительность : 1 ч. 26 м.
Вид битрейта : Переменный
Битрейт : 4466 Кбит/сек
Максимальный битрейт : 5000 Кбит/сек
Ширина : 1280 пикселей
Высота : 720 пикселей
Соотношение сторон : 16:9
Режим частоты кадров : Постоянный
Частота кадров : 23,976 (24000/1001) кадра/сек
Стандарт вещания : Component
Цветовое пространство : YUV
Субдискретизация насыщенности : 4:2:0
Битовая глубина : 8 бит
Тип развёртки : Прогрессивная
Бит/(Пиксели*Кадры) : 0.198
Размер потока : 2,65 Гбайт (90%)
Default : Да
Forced : Нет
Цветовой диапазон : Limited
Основные цвета : BT.709
Характеристики трансфера : BT.709
Коэффициенты матрицы : BT.709

Аудио
Идентификатор : 2
Формат : AC-3
Формат/Информация : Audio Coding 3
Расширение режима : CM (complete main)
Параметр Endianness формата : Big
Идентификатор кодека : A_AC3
Продолжительность : 1 ч. 26 м.
Вид битрейта : Постоянный
Битрейт : 384 Кбит/сек
Каналы : 2 канала
Расположение каналов : Front: L R
Частота : 48,0 КГц
Частота кадров : 31,250 кадров/сек (1536 spf)
Метод сжатия : С потерями
Размер потока : 239 Мбайт (8%)
Default : Да
Forced : Нет

pb.wtf



Скачать Зло через торрент https://d.radikal.ru/d19/1810/76/dea03d6d68ac.jpg Скачать фильм Зло через торрент бесплантно в хорошем качестве Описание: В городской больнице открывается загадочный портал, и наружу вырывается древнее ... 10 10 3
Торрент: Зарегистрирован [2018-10-23 12:01] · скачан: 23 раз
Статус: T временная
Размер: 2.95 GB
Как cкачать? Как скачать Зло через торрент | qTorrent

% Раздел Тема Автор DL S | L
T Фильмы (мультфильмы) cо спонсором показа (Новинки AVI/MKV) [ 1.36 GB ] Зло / Maligno [2016 WEB-DLRip] MVO [КОЛОБОК] bober100 Скачать
1 | 0

28-11-2019 20:33  

Отключить всю рекламу на сайте

    Дорогой пользователь! Огромная просьба, поблагодарите релизера, оцените раздачу и оставьте свои комментарий, если Вы скачали Зло через торрент бесплатно! Внесите свою лепту в развитие PiratBit!
    Комментировать посты могут только пользователи прошедшие не сложную регистрацию
    Показать сообщения:    

    Зло через торрент
    Скачать бесплатно Зло
    Зло скачать торрент
    Зло смотреть онлайн
    Cкачать фильм Зло бесплатно
    Зло скачать торрент в хорошем качестве
    Зло смотреть онлайн бесплатно в хорошем качестве


    Вы не можете начинать темы
    Вы не можете отвечать на сообщения
    Вы не можете редактировать свои сообщения
    Вы не можете удалять свои сообщения
    Вы не можете голосовать в опросах
    Вы не можете прикреплять файлы к сообщениям
    Вы можете скачивать файлы