Ссылка на приватное зеркало всего за 1$. Внимание количество ограничено!!!

iTunes

1+1

iTunes

мы

WEB-DL

1

iTunes

Чернобыль

iTunes

Ральф против интернета

Лицензия

ПШазам

Лицензия

Оно 2

Лицензия

30
pack

Вам бонус

ВАЖНО

!!Акция!!

Alien_RageХит недели

RePack

Resident Evil 21

ИГРА 18+

pack

RePack

jed

!!Акция!!

Alien_Rage

RePack

fifa19

RePack

Assassins Creed: Odyssey

RePack

NEED FOR SPEED™ PAYBACK

3 сезон

9 сезон

Бесстыжие 9 сезон

Все сериалы

все сериалы на PB.wtf

RePack

FAR CRY 5
Ребята, катастрофически не хватает 1900р. для оплаты серверов за Октябрь (всвязи с блокировками трафик упал в 3 раза), 1-2р., выручайте.
  

Гарри Поттер и философский камень / Harry Potter and the Sorcerer's Stone (Крис Коламбус) [2001, фэнтези, приключения, семейный, UHD BDRip 2160p] DUB + DVO + 2xMVO + 3xAVO pb.wtf

Гарри Поттер и философский камень через торрент pb.wtf

Раздают: 1 [ 0 KB/s ]
Размер: 23.56 GB | Добавлен: 1 год 1 мес. назад | Торрент скачан:92 раза
Скачать  

24-10-2018 04:45 Гарри Поттер и философский камень Скачать торрент  

Гарри Поттер и философский камень / Harry Potter and the Sorcerer's Stone«Путешествие в твою мечту»
Год выпуска: 2001
Страна: Великобритания, США
Жанр: фэнтези, приключения, семейный
Продолжительность: 02:32:21
Перевод: Дублированный, профессиональный многоголосый, профессиональный двухголосый, авторский
Субтитры: Русские (полные, форсированные), украинские (полные), английские(SDH)
Режиссер: Крис Коламбус
В ролях:

Дэниэл Рэдклифф (Harry Potter), Руперт Гринт (Ron Weasley), Эмма Уотсон (Hermione Granger), Ричард Харрис (Albus Dumbledore), Алан Рикман (Professor Snape), Мэгги Смит (Professor McGonagall), Робби Колтрейн (Hagrid), Том Фелтон (Draco Malfoy), Мэттью Льюис (Neville Longbottom), Иэн Харт (Professor Quirrell), Дэвид Брэдли (Mr. Filch), Шон Биггерстаф (Oliver Wood)
Описание:
Жизнь десятилетнего Гарри Поттера нельзя назвать сладкой: его родители умерли, едва ему исполнился год, а от дяди и тётки, взявших сироту на воспитание, достаются лишь тычки да подзатыльники. Но в одиннадцатый день рождения Гарри всё меняется. Странный гость, неожиданно появившийся на пороге, приносит письмо, из которого мальчик узнаёт, что на самом деле он волшебник и принят в Хогвартс - школу магии. А уже через пару недель Гарри будет мчаться в поезде Хогвартс-экспресс навстречу новой жизни, где его ждут невероятные приключения, верные друзья и самое главное - ключ к разгадке тайны смерти его родителей.
Рейтинг:

MPAA: PG - Рекомендуется присутствие родителей
Качество: UHD BDRip 2160p
Формат: MKV
Видео: HEVC, HDR, 16.5 Мбит/с, 3840x1596, 23.976 Кадр/с
Аудио №1: 48 kHz, AC3, 3/2 (L,C,R,l,r) + LFE ch, 640 kbps avg |Russian - DUB - BD CEE|
Аудио №2: 48 kHz, AC3, 3/2 (L,C,R,l,r) + LFE ch, 448 kbps avg |Russian - DVO - П. Гланц и И. Королёва|
Аудио №3: 48 kHz, AC3, 3/2 (L,C,R,l,r) + LFE ch, 448 kbps avg |Russian - MVO - С.Р.И.|
Аудио №4: 48 kHz, AC3, 3/2 (L,C,R,l,r) + LFE ch, 640 kbps avg |Russian - AVO - С. Рябов|
Аудио №5: 48 kHz, AC3, 3/2 (L,R) ch, 192 kbps avg |Ukrainian - MVO - 1+1|
Аудио №6: 48 kHz, AC3, 2/0 (L,R) ch, 192 kbps avg |Ukrainian - MVO - Новый канал|
Аудио №7: 48 kHz, AC3, 3/2 (L,C,R,l,r) + LFE ch, 448 kbps avg |Russian - MVO Карусель|
Аудио №8: 48 kHz, AC3, 2/0 (L,R) ch, 256 kbps avg |Russian - SDI Media|
Аудио №9: 48 kHz, AC3, 2/0 (L,R) ch, 256 kbps avg |Russian - Визгунов и Гвамичава (~2002/2003 г.)|
Аудио №10: 48 kHz, AC3, 2/0 (L,R) ch, 256 kbps avg |Russian -AVO - Визгунов|
Аудио №11: 48 kHz, AC3, 2/0 (L,R) ch, 256 kbps avg |Russian -AVO - Дольский|
Аудио №12: 48 kHz, DTS, 3/2 (L,C,R,l,r) + LFE ch, 1509 kbps avg |English - Original|
Навигация по главам: есть
Оскар, 2002 год
Номинации (3):
Лучшие декорации
Лучшие костюмы
Лучший оригинальный саундтрек

Премия канала «MTV», 2002 год
Номинации (1):
Мужской прорыв года (Дэниэл Рэдклифф)

Британская академия, 2002 год
Номинации (7):
Лучшая мужская роль второго плана (Робби Колтрейн)
Лучшие костюмы
Лучший звук
Лучшие визуальные эффекты
Лучший грим/прически
Лучшая работа художника-постановщика
Премия имени Александра Корды за самый выдающийся британский фильм года

Сатурн, 2002 год
Победитель (1):
Лучшие костюмы
Номинации (8):
Лучший фэнтези-фильм
Лучший режиссер (Крис Коламбус)
Лучший молодой актер/актриса (Эмма Уотсон)
Лучший молодой актер/актриса (Дэниэл Рэдклифф)
Лучший актер второго плана (Робби Колтрейн)
Лучшая актриса второго плана (Мэгги Смит)
Лучшие спецэффекты
Лучший грим
- Фильм снят по мотивам романа Дж. К. Роулинг «Гарри Поттер и философский камень» (Harry Potter and the Philosopher`s Stone, 1997).
- Во всём мире, кроме США фильм вышел под названием «Гарри Поттер и философский камень» («Harry Potter and the Philosopher`s Stone»). В североамериканском прокате название было изменено на «Гарри Поттер и волшебный камень» («Harry Potter and the Sorcerer`s Stone»). По этой причине все сцены, в которых упоминается философский камень, были сняты дважды: в одном случае актёры произносят философский камень (Philosopher`s Stone), а в другом волшебный камень (Sorcerer`s stone).
- В одной из сцен фильма, когда Гарри, Рон и Гермиона подходят к хижине Хагрида, он играет на самодельной дудочке. В этот момент он играет тему Хедвиги («Hedwig`s Theme») из саундтрэка фильма.
- В качестве Хогвартского экспресса в этом и последующих фильмах был использован паровоз GWR 4900 Class 5972 Olton Hall, принадлежавший когда-то британской компании Great Western Railway и построенный в 1937 году. С 2004 года частный туристический оператор Beyond Boundaries Travel организует на нём туры по Британии исключительно для фанатов Гарри Поттера.
- На Кубке Квиддича помимо имени отца Гарри в числе прочих также выгравированы имена М. МагГонаголл и Р. Дж. Х. Кинг. Второй персонаж получил свое имя в честь Джона Кинга, отвечавшего за производство и использование декораций в проекте.
- В Трофейной комнате, справа от Кубка Квиддича можно увидеть награду «за особые заслуги перед школой». При этом видна часть имени Тома М. Риддла, выгравированного на ней.
- Среди портретов на исчезающей лестнице можно заметить картину с изображением английской королевы Анны Болейн, второй жены короля Генриха VIII и матери Елизаветы I. Многие современники Анны Болейн полагали, что она ведьма.
- Использованная при съемках полосатая кошка пропала без следа и была найдена после усиленных поисков только через два дня.
- Одним из дублёров Робби Колтрейна был бывший игрок английской национальной регбийной сборной Мартин Бэйфилд.
- В качестве совы Гарри Поттера Хедвиги были задействованы сразу три совы Оок, Гизмо и Спраут.
- Николас Фламель, упомянутый как создатель философского камня, был в реальности известным алхимиком, по мнению некоторых из его современников действительно создавший философский камень и смерть которого была окружена таинственными обстоятельствами. Существует легенда, что он жив до сих пор и в таком случае ему было бы примерно столько же лет как в фильме и книге.
- По книге ученики школы отправляются в Хогвартс с невидимой обычному взгляду платформы 9 ¾ на вокзале Кингс-Кросс, попасть на которую можно через барьер между платформами 9 и 10. Однако оказалось, что на вокзале Кингс-Кросс платформы 9 и 10 находятся не в главном здании, а в отдельном строении и их разделяет не барьер, а две железнодорожные колеи. В одном из интервью Дж. К. Роулинг признала свою ошибку и сказала, что перепутала лондонские вокзалы Кингс-Кросс и Юстон, хотя и на втором вокзале платформы 9 и 10 также разделены колеями, а не барьером. Для съёмок фильма были использованы платформы 4 и 5, которые находятся в главной части вокзала Кинг-Кросс и были просто на время переименованы в 9 и 10. Впоследствии на стене здания, где находятся реальные платформы 9 и 10 был помещён чугунный знак-указатель «Платформа 9 ¾», а под ним вмонтирована четверть багажной тележки, оставшаяся часть которой как бы уже исчезла в стене.
- Актёр, сыгравший дежурного на вокзале Кингс-Кросс, к которому Гарри обращается за помощью, на самом деле работает служащим на британской железной дороге, правда, в другой должности начальника поезда.
- Фамилия Дамблдора в переводе со староанглийского означает шмель.
- Надпись на волшебном зеркале гласит: «Erised stra ehru oyt ube cafru oyt on wohsi». Если прочитать это наоборот получится: «I show not your face but your heart`s desire», что в переводе означает «Я показываю не ваше лицо, но ваше самое горячее желание».
- Девиз школы волшебства и чародейства Хогвартс «Draco dormiens nunquam titillandus» означает в переводе с латыни «Никогда не буди спящего дракона».
- Во время съёмок Дэниэл Рэдклифф решил подшутить над Робби Колтрейном и поменял интерфейс его мобильного телефона на турецкий. Актёр долгое время не мог разобраться с этим, и вынужден был обратиться за помощью к отцу отвечавшей за грим и макияж Эйтте Феннель, турку по происхождению.
Complete name : I:\RUSSIAN\Harry.Potter.and.the.Sorcerers.Stone.2001.2160p.BluRay.x265.10bit.HDR.Rus.Eng.Ukr.-ExKinoRay.mkv
Format : Matroska
Format version : Version 4 / Version 2
File size : 23.6 GiB
Duration : 2 h 32 min
Overall bit rate : 22.1 Mb/s
Movie name : UHD 2160 || Release by SpaceHD13
Encoded date : UTC 2018-10-20 21:43:29
Writing application : mkvmerge v27.0.0 ('Metropolis') 64-bit
Writing library : libebml v1.3.6 + libmatroska v1.4.9
Cover : Yes
Attachments : cover.png

Video
ID : 1
Format : HEVC
Format/Info : High Efficiency Video Coding
Commercial name : HDR10
Format profile : Main 10@L5.1@High
Codec ID : V_MPEGH/ISO/HEVC
Duration : 2 h 32 min
Bit rate : 16.5 Mb/s
Width : 3 840 pixels
Height : 1 596 pixels
Display aspect ratio : 2.40:1
Frame rate mode : Constant
Frame rate : 23.976 (24000/1001) FPS
Color space : YUV
Chroma subsampling : 4:2:0 (Type 2)
Bit depth : 10 bits
Bits/(Pixel*Frame) : 0.113
Stream size : 17.6 GiB (75%)
Title : Harry.Potter.and.the.Sorcerers.Stone.2001.2160p.BluRay.x265.10bit.HDR.Rus.Eng.Ukr.-ExKinoRay
Writing library : x265 2.6+37-1949157705ce:[Windows][GCC 6.3.0][64 bit] 10bit
Encoding settings : cpuid=1105919 / frame-threads=3 / numa-pools=8 / wpp / no-pmode / no-pme / no-psnr / no-ssim / log-level=2 / input-csp=1 / input-res=3840x1596 / interlace=0 / total-frames=219173 / level-idc=51 / high-tier=1 / uhd-bd=0 / ref=4 / no-allow-non-conformance / repeat-headers / annexb / no-aud / no-hrd / info / hash=0 / no-temporal-layers / no-open-gop / min-keyint=23 / keyint=250 / gop-lookahead=0 / bframes=16 / b-adapt=2 / b-pyramid / bframe-bias=0 / rc-lookahead=48 / lookahead-slices=4 / scenecut=40 / radl=0 / no-intra-refresh / ctu=64 / min-cu-size=8 / no-rect / no-amp / max-tu-size=32 / tu-inter-depth=1 / tu-intra-depth=1 / limit-tu=0 / rdoq-level=2 / dynamic-rd=0.00 / no-ssim-rd / signhide / no-tskip / nr-intra=0 / nr-inter=0 / no-constrained-intra / no-strong-intra-smoothing / max-merge=5 / limit-refs=3 / limit-modes / me=3 / subme=7 / merange=57 / temporal-mvp / weightp / weightb / no-analyze-src-pics / deblock=0:0 / no-sao / no-sao-non-deblock / rd=4 / no-early-skip / no-rskip / no-fast-intra / no-tskip-fast / no-cu-lossless / no-b-intra / no-splitrd-skip / rdpenalty=0 / psy-rd=2.00 / psy-rdoq=1.00 / no-rd-refine / no-lossless / cbqpoffs=0 / crqpoffs=0 / rc=crf / crf=19.0 / qcomp=0.60 / qpstep=4 / stats-write=0 / stats-read=0 / vbv-maxrate=160000 / vbv-bufsize=160000 / vbv-init=0.9 / crf-max=0.0 / crf-min=0.0 / ipratio=1.40 / pbratio=1.30 / aq-mode=0 / aq-strength=0.00 / no-cutree / zone-count=0 / no-strict-cbr / qg-size=32 / no-rc-grain / qpmax=69 / qpmin=0 / no-const-vbv / sar=0 / overscan=0 / videoformat=5 / range=0 / colorprim=9 / transfer=16 / colormatrix=9 / chromaloc=1 / chromaloc-top=2 / chromaloc-bottom=2 / display-window=0 / master-display=G(13250,34500)B(7500,3000)R(34000,16000)WP(15635,16450)L(40000000,50) / max-cll=552,190 / min-luma=0 / max-luma=1023 / log2-max-poc-lsb=8 / vui-timing-info / vui-hrd-info / slices=1 / no-opt-qp-pps / no-opt-ref-list-length-pps / no-multi-pass-opt-rps / scenecut-bias=0.05 / no-opt-cu-delta-qp / no-aq-motion / hdr / no-hdr-opt / no-dhdr10-opt / analysis-reuse-level=5 / scale-factor=0 / refine-intra=0 / refine-inter=0 / refine-mv=0 / no-limit-sao / ctu-info=0 / no-lowpass-dct / refine-mv-type=0 / copy-pic=1
Default : Yes
Forced : No
Color range : Limited
Color primaries : BT.2020
Transfer characteristics : PQ
Matrix coefficients : BT.2020 non-constant
Mastering display color primaries : Display P3
Mastering display luminance : min: 0.0050 cd/m2, max: 4000 cd/m2
Maximum Content Light Level : 552 cd/m2
Maximum Frame-Average Light Level : 190 cd/m2

Audio #1
ID : 2
Format : AC-3
Format/Info : Audio Coding 3
Codec ID : A_AC3
Duration : 2 h 32 min
Bit rate mode : Constant
Bit rate : 640 kb/s
Channel(s) : 6 channels
Channel positions : Front: L C R, Side: L R, LFE
Sampling rate : 48.0 kHz
Frame rate : 31.250 FPS (1536 SPF)
Bit depth : 16 bits
Compression mode : Lossy
Stream size : 697 MiB (3%)
Title : Dub-Blu-ray CEE
Language : Russian
Service kind : Complete Main
Default : Yes
Forced : No

Audio #2
ID : 3
Format : AC-3
Format/Info : Audio Coding 3
Codec ID : A_AC3
Duration : 2 h 29 min
Bit rate mode : Constant
Bit rate : 448 kb/s
Channel(s) : 6 channels
Channel positions : Front: L C R, Side: L R, LFE
Sampling rate : 48.0 kHz
Frame rate : 31.250 FPS (1536 SPF)
Bit depth : 16 bits
Compression mode : Lossy
Stream size : 480 MiB (2%)
Title : DVO [П.Гланц & И.Королёва]
Language : Russian
Service kind : Complete Main
Default : No
Forced : No

Audio #3
ID : 4
Format : AC-3
Format/Info : Audio Coding 3
Codec ID : A_AC3
Duration : 2 h 32 min
Bit rate mode : Constant
Bit rate : 448 kb/s
Channel(s) : 6 channels
Channel positions : Front: L C R, Side: L R, LFE
Sampling rate : 48.0 kHz
Frame rate : 31.250 FPS (1536 SPF)
Bit depth : 16 bits
Compression mode : Lossy
Stream size : 488 MiB (2%)
Title : MVO [С.Р.И.]
Language : Russian
Service kind : Complete Main
Default : No
Forced : No

Audio #4
ID : 5
Format : AC-3
Format/Info : Audio Coding 3
Codec ID : A_AC3
Duration : 2 h 32 min
Bit rate mode : Constant
Bit rate : 640 kb/s
Channel(s) : 6 channels
Channel positions : Front: L C R, Side: L R, LFE
Sampling rate : 48.0 kHz
Frame rate : 31.250 FPS (1536 SPF)
Bit depth : 16 bits
Compression mode : Lossy
Stream size : 697 MiB (3%)
Title : AVO [С.Рябов]
Language : Russian
Service kind : Complete Main
Default : No
Forced : No

Audio #5
ID : 6
Format : AC-3
Format/Info : Audio Coding 3
Codec ID : A_AC3
Duration : 2 h 32 min
Bit rate mode : Constant
Bit rate : 192 kb/s
Channel(s) : 2 channels
Channel positions : Front: L R
Sampling rate : 48.0 kHz
Frame rate : 31.250 FPS (1536 SPF)
Bit depth : 16 bits
Compression mode : Lossy
Stream size : 209 MiB (1%)
Title : MVO [1+1]
Language : Ukrainian
Service kind : Complete Main
Default : No
Forced : No

Audio #6
ID : 7
Format : AC-3
Format/Info : Audio Coding 3
Codec ID : A_AC3
Duration : 2 h 32 min
Bit rate mode : Constant
Bit rate : 192 kb/s
Channel(s) : 2 channels
Channel positions : Front: L R
Sampling rate : 48.0 kHz
Frame rate : 31.250 FPS (1536 SPF)
Bit depth : 16 bits
Compression mode : Lossy
Stream size : 209 MiB (1%)
Title : MVO [Новий]
Language : Ukrainian
Service kind : Complete Main
Default : No
Forced : No

Audio #7
ID : 8
Format : DTS
Format/Info : Digital Theater Systems
Codec ID : A_DTS
Duration : 2 h 32 min
Bit rate mode : Constant
Bit rate : 1 509 kb/s
Channel(s) : 6 channels
Channel positions : Front: L C R, Side: L R, LFE
Sampling rate : 48.0 kHz
Frame rate : 93.750 FPS (512 SPF)
Bit depth : 24 bits
Compression mode : Lossy
Stream size : 1.61 GiB (7%)
Title : original
Language : English
Default : No
Forced : No

Audio #8
ID : 9
Format : AC-3
Format/Info : Audio Coding 3
Codec ID : A_AC3
Duration : 2 h 32 min
Bit rate mode : Constant
Bit rate : 448 kb/s
Channel(s) : 6 channels
Channel positions : Front: L C R, Side: L R, LFE
Sampling rate : 48.0 kHz
Frame rate : 31.250 FPS (1536 SPF)
Bit depth : 16 bits
Compression mode : Lossy
Stream size : 488 MiB (2%)
Title : [Карусель]
Language : Russian
Service kind : Complete Main
Default : No
Forced : No

Audio #9
ID : 10
Format : AC-3
Format/Info : Audio Coding 3
Codec ID : A_AC3
Duration : 2 h 32 min
Bit rate mode : Constant
Bit rate : 256 kb/s
Channel(s) : 2 channels
Channel positions : Front: L R
Sampling rate : 48.0 kHz
Frame rate : 31.250 FPS (1536 SPF)
Bit depth : 16 bits
Compression mode : Lossy
Stream size : 279 MiB (1%)
Title : [SDI Media]
Language : Russian
Service kind : Complete Main
Default : No
Forced : No

Audio #10
ID : 11
Format : AC-3
Format/Info : Audio Coding 3
Codec ID : A_AC3
Duration : 2 h 32 min
Bit rate mode : Constant
Bit rate : 256 kb/s
Channel(s) : 2 channels
Channel positions : Front: L R
Sampling rate : 48.0 kHz
Frame rate : 31.250 FPS (1536 SPF)
Bit depth : 16 bits
Compression mode : Lossy
Stream size : 279 MiB (1%)
Title : [Сергей Визгунов и Нина Гвамичава]
Language : Russian
Service kind : Complete Main
Default : No
Forced : No

Audio #11
ID : 12
Format : AC-3
Format/Info : Audio Coding 3
Codec ID : A_AC3
Duration : 2 h 32 min
Bit rate mode : Constant
Bit rate : 256 kb/s
Channel(s) : 2 channels
Channel positions : Front: L R
Sampling rate : 48.0 kHz
Frame rate : 31.250 FPS (1536 SPF)
Bit depth : 16 bits
Compression mode : Lossy
Stream size : 279 MiB (1%)
Title : [Сергей Визгунов #1]
Language : Russian
Service kind : Complete Main
Default : No
Forced : No

Audio #12
ID : 13
Format : AC-3
Format/Info : Audio Coding 3
Codec ID : A_AC3
Duration : 2 h 32 min
Bit rate mode : Constant
Bit rate : 256 kb/s
Channel(s) : 2 channels
Channel positions : Front: L R
Sampling rate : 48.0 kHz
Frame rate : 31.250 FPS (1536 SPF)
Bit depth : 16 bits
Compression mode : Lossy
Stream size : 279 MiB (1%)
Title : [Андрей Дольский]
Language : Russian
Service kind : Complete Main
Default : No
Forced : No

Text #1
ID : 14
Format : PGS
Muxing mode : zlib
Codec ID : S_HDMV/PGS
Codec ID/Info : Picture based subtitle format used on BDs/HD-DVDs
Duration : 1 h 16 min
Bit rate : 525 b/s
Count of elements : 20
Stream size : 294 KiB (0%)
Title : forced
Language : Russian
Default : Yes
Forced : No

Text #2
ID : 15
Format : PGS
Muxing mode : zlib
Codec ID : S_HDMV/PGS
Codec ID/Info : Picture based subtitle format used on BDs/HD-DVDs
Duration : 2 h 32 min
Bit rate : 38.7 kb/s
Count of elements : 2504
Stream size : 42.0 MiB (0%)
Title : full
Language : Russian
Default : No
Forced : No

Text #3
ID : 16
Format : PGS
Muxing mode : zlib
Codec ID : S_HDMV/PGS
Codec ID/Info : Picture based subtitle format used on BDs/HD-DVDs
Duration : 2 h 23 min
Bit rate : 39.5 kb/s
Count of elements : 2500
Stream size : 40.4 MiB (0%)
Title : full
Language : Ukrainian
Default : No
Forced : No

Text #4
ID : 17
Format : PGS
Muxing mode : zlib
Codec ID : S_HDMV/PGS
Codec ID/Info : Picture based subtitle format used on BDs/HD-DVDs
Duration : 2 h 31 min
Bit rate : 39.5 kb/s
Count of elements : 2608
Stream size : 42.7 MiB (0%)
Title : SDH
Language : English
Default : No
Forced : No

Menu
00:00:00.000 : en:Chapter 1
00:04:05.411 : en:Chapter 2
00:08:11.157 : en:Chapter 3
00:12:17.403 : en:Chapter 4
00:18:25.270 : en:Chapter 5
00:21:43.635 : en:Chapter 6
00:24:41.646 : en:Chapter 7
00:28:49.561 : en:Chapter 8
00:31:05.196 : en:Chapter 9
00:34:05.543 : en:Chapter 10
00:37:49.600 : en:Chapter 11
00:41:29.487 : en:Chapter 12
00:46:13.437 : en:Chapter 13
00:50:29.026 : en:Chapter 14
00:55:04.301 : en:Chapter 15
01:00:55.652 : en:Chapter 16
01:03:43.986 : en:Chapter 17
01:07:48.230 : en:Chapter 18
01:13:49.258 : en:Chapter 19
01:20:17.979 : en:Chapter 20
01:23:54.529 : en:Chapter 21
01:28:32.473 : en:Chapter 22
01:31:42.497 : en:Chapter 23
01:36:42.630 : en:Chapter 24
01:42:34.815 : en:Chapter 25
01:49:05.038 : en:Chapter 26
01:53:21.628 : en:Chapter 27
01:58:09.749 : en:Chapter 28
02:03:44.750 : en:Chapter 29
02:06:56.108 : en:Chapter 30
02:10:55.347 : en:Chapter 31
02:14:18.884 : en:Chapter 32
02:17:29.574 : en:Chapter 33
02:21:44.662 : en:Chapter 34
02:24:10.808 : en:Chapter 35
pb.wtf



Скачать Гарри Поттер и философский камень через торрент https://b.radikal.ru/b19/1810/ec/2d22d1d583e6.png Скачать фильм Гарри Поттер и философский камень через торрент бесплантно в хорошем качестве Описание: Жизнь десятилетнего Гарри Поттера нельзя назвать сладкой: его родители умерли, едва ему исполнился год, а от дяди и тётки, ... 10 10 4
Info! Золотая раздача, скачанное не засчитывается.
Торрент: Зарегистрирован [2018-10-24 04:45] · скачан: 92 раз
Статус: √ проверено
Размер: 23.56 GB
Как cкачать? Как скачать Гарри Поттер и философский камень через торрент | qTorrent

28-11-2019 20:33  

Отключить всю рекламу на сайте

    Дорогой пользователь! Огромная просьба, поблагодарите релизера, оцените раздачу и оставьте свои комментарий, если Вы скачали Гарри Поттер и философский камень через торрент бесплатно! Внесите свою лепту в развитие PiratBit!
    Комментировать посты могут только пользователи прошедшие не сложную регистрацию
    Показать сообщения:    

    Гарри Поттер и философский камень через торрент
    Скачать бесплатно Гарри Поттер и философский камень
    Гарри Поттер и философский камень скачать торрент
    Гарри Поттер и философский камень смотреть онлайн
    Cкачать фильм Гарри Поттер и философский камень бесплатно
    Гарри Поттер и философский камень скачать торрент в хорошем качестве
    Гарри Поттер и философский камень смотреть онлайн бесплатно в хорошем качестве


    Вы не можете начинать темы
    Вы не можете отвечать на сообщения
    Вы не можете редактировать свои сообщения
    Вы не можете удалять свои сообщения
    Вы не можете голосовать в опросах
    Вы не можете прикреплять файлы к сообщениям
    Вы можете скачивать файлы