Ссылка на приватное зеркало нашего сайта всего за 1$. Внимание количество ограничено!!!

2 сезон

iTunes

1 сезон

1

iTunes

iTunes

iTunes

1 сезон

RePack

30

ИГРА 18+

pack

ВАЖНО

!!Акция!!

Alien_RageХит недели

RePack

MK11
pack

Забери бонус

RePack

jed

!!Акция!!

Alien_Rage

RePack

fifa19

RePack

Assassins Creed: Odyssey

RePack

NEED FOR SPEED™ PAYBACK

4 сезон

9 сезон

Бесстыжие 9 сезон

Все сериалы

все сериалы на PB.wtf

RePack

FAR CRY 5
  

Выход / Exit (Адам Баранелло) [2016, Фантастика, WEB-DL 720p] MVO [КОЛОБОК] pb.wtf

Выход через торрент pb.wtf

Размер: 2.68 GB | Добавлен: 1 год 11 мес. назад | Торрент скачан:34 раза
Скачать  

25-10-2018 18:19 Выход Скачать торрент  

Выход / ExitГод выпуска: 2016
Страна: США
Жанр: Фантастика
Продолжительность: 01:12:31
Перевод: Любительский (многоголосый) | КОЛОБОК
Субтитры: отсутствуют

Режиссер: Адам Баранелло

rating

В ролях:

Адам Баранелло, Гейл Баранелло, Адрианна де Свастич

Описание:

Экзистенция. Трансцендентность. Диана Гарденер мечтает распрощаться со скучной и обыденной работой, и наконец воплотить свои мечты о большем в жизнь. Вот только не знает как. Смогут ли люди, повстречавшиеся ей на пути, указать ей верный путь?

Качество: WEB-DL 720p
Формат: MKV

Видео: h.264, 4 899 Кбит/с, 1280x720
Аудио#1: Русский, (AC3, 2 ch, 384 Кбит/с)
скриншот  скриншот  скриншот  

Общее
Уникальный идентификатор : 236987867153899330394498198635290792831 (0xB24A33F68CFDFED59CC5D41D513F937F)
Полное имя : D:\Exit.2016.Pk.WEB-DL.72Op.mkv
Формат : Matroska
Версия формата : Version 2
Размер файла : 2,68 Гбайт
Продолжительность : 1 ч. 12 м.
Режим общего битрейта : Переменный
Общий поток : 5285 Кбит/сек
Дата кодирования : UTC 2018-10-24 19:36:03
Программа кодирования : mkvmerge v8.3.0 ('Over the Horizon') 64bit
Библиотека кодирования : libebml v1.3.1 + libmatroska v1.4.2

Видео
Идентификатор : 1
Формат : AVC
Формат/Информация : Advanced Video Codec
Профиль формата : High@L4.1
Параметр CABAC формата : Да
Параметр RefFrames формата : 4 кадра
Идентификатор кодека : V_MPEG4/ISO/AVC
Продолжительность : 1 ч. 12 м.
Вид битрейта : Переменный
Битрейт : 4899 Кбит/сек
Максимальный битрейт : 6000 Кбит/сек
Ширина : 1280 пикселей
Высота : 720 пикселей
Соотношение сторон : 16:9
Режим частоты кадров : Постоянный
Частота кадров : 23,976 (24000/1001) кадра/сек
Стандарт вещания : Component
Цветовое пространство : YUV
Субдискретизация насыщенности : 4:2:0
Битовая глубина : 8 бит
Тип развёртки : Прогрессивная
Бит/(Пиксели*Кадры) : 0.217
Размер потока : 2,43 Гбайт (91%)
Default : Да
Forced : Нет
Цветовой диапазон : Limited
Основные цвета : BT.709
Характеристики трансфера : BT.709
Коэффициенты матрицы : BT.709

Аудио
Идентификатор : 2
Формат : AC-3
Формат/Информация : Audio Coding 3
Расширение режима : CM (complete main)
Параметр Endianness формата : Big
Идентификатор кодека : A_AC3
Продолжительность : 1 ч. 12 м.
Вид битрейта : Постоянный
Битрейт : 384 Кбит/сек
Каналы : 2 канала
Расположение каналов : Front: L R
Частота : 48,0 КГц
Частота кадров : 31,250 кадров/сек (1536 spf)
Метод сжатия : С потерями
Размер потока : 199 Мбайт (7%)
Default : Да
Forced : Нет

pb.wtf



Скачать Выход через торрент https://c.radikal.ru/c18/1810/1c/d6643a411608.jpg Скачать фильм Выход через торрент бесплантно в хорошем качестве Описание: Экзистенция. Трансцендентность. Диана Гарденер мечтает распрощаться со скучной и обыденной работой, и наконец воплотить свои ... 10 10 2
Торрент: Зарегистрирован [2018-10-25 18:19] · скачан: 34 раз
Статус: T временная
Размер: 2.68 GB
Как cкачать? Как скачать Выход через торрент | qTorrent

% Раздел Тема Автор DL S | L
T Фильмы (мультфильмы) cо спонсором показа (Новинки AVI/MKV) [ 1.37 GB ] Выход / Exit [2016 WEB-DLRip] MVO [КОЛОБОК] bober100 Скачать
1 | 0
Фильмы с авторской озвучкой [ 1.46 GB ] Выхода нет / No Exit [1995 DVDRip Авторский Андрей Гаврилов schultz Скачать
1 | 0
Гонзо [ 2.68 GB ] Войди В Её Задний Проход / Enter Her Exit [2014 Gonzo Anal WEB-DLRip Оригинал] Pir@tya2010 Скачать
1 | 0
Фильмы [HD 720p, 1080p] (Хороший звук DUB, MVO) [ 4.6 GB ] Выход через сувенирную лавку / Exit Through the Gift Shop [2010 документальный BDRip ] F.U. Скачать
1 | 0
Фильмы 2009 [ 1.37 GB ] Выход через сувенирную лавку / Exit Through the Gift Shop [2010 документальный HDRip] MIO2008 Скачать
1 | 0

28-11-2019 20:33  

Отключить всю рекламу на сайте

26-10-2018 00:41 Выход Скачать торрент  

чет чеканутым артхаусом попахивает описание. кто рискнул посмотреть отпишитесьpb.wtf



28-10-2018 08:07 Выход Скачать торрент  

Хватило на 10 минут, выключил. Может дальше и будет интересно, но чёт я сомневаюсь.pb.wtf



    Дорогой пользователь! Огромная просьба, поблагодарите релизера, оцените раздачу и оставьте свои комментарий, если Вы скачали Выход через торрент бесплатно! Внесите свою лепту в развитие PiratBit!
    Комментировать посты могут только пользователи прошедшие не сложную регистрацию
    Показать сообщения:    

    Выход через торрент
    Скачать бесплатно Выход
    Выход скачать торрент
    Выход смотреть онлайн
    Cкачать фильм Выход бесплатно
    Выход скачать торрент в хорошем качестве
    Выход смотреть онлайн бесплатно в хорошем качестве


    Вы не можете начинать темы
    Вы не можете отвечать на сообщения
    Вы не можете редактировать свои сообщения
    Вы не можете удалять свои сообщения
    Вы не можете голосовать в опросах
    Вы не можете прикреплять файлы к сообщениям
    Вы можете скачивать файлы