новый адрес
Ссылка на приватное зеркало всего за 1$. Внимание количество ограничено!!!

iTunes

1+1

iTunes

мы

WEB-DL

1

iTunes

Чернобыль

iTunes

Ральф против интернета

Лицензия

ПШазам

Лицензия

Оно 2

Лицензия

30
pack

Вам бонус

ВАЖНО

!!Акция!!

Alien_RageХит недели

RePack

Resident Evil 21

ИГРА 18+

pack

RePack

jed

!!Акция!!

Alien_Rage

RePack

fifa19

RePack

Assassins Creed: Odyssey

RePack

NEED FOR SPEED™ PAYBACK

3 сезон

9 сезон

Бесстыжие 9 сезон

Все сериалы

все сериалы на PB.wtf

RePack

FAR CRY 5
Ребята, катастрофически не хватает 1900р. для оплаты серверов за Октябрь (всвязи с блокировками трафик упал в 3 раза), 1-2р., выручайте.
  

Зловещие мертвецы 2 / Evil Dead II (Сэм Рэйми) [1987, ужасы, комедия, фэнтези, UHD BDRemux 2160p] 2xMVO + DVO + 6xAVO + VO pb.wtf

Зловещие мертвецы 2 через торрент pb.wtf

Размер: 45.74 GB | Добавлен: 1 год 1 мес. назад | Торрент скачан:18 раз
Скачать  

26-10-2018 11:42 Зловещие мертвецы 2 Скачать торрент  

Зловещие мертвецы 2 / Evil Dead II«The Sequel To The Ultimate Experience In Grueling Terror»
Год выпуска: 1987
Страна: США
Жанр: ужасы, комедия, фэнтези
Продолжительность: 01:24:39
Перевод: Профессиональный многоголосый, профессиональный двухголосый, авторский, любительский одноголосый
Субтитры: Русские, английские, испанские, французские, немецкие
Режиссер: Сэм Рэйми
В ролях:

Брюс Кэмпбелл (Ashley «Ash» J. Williams), Сара Берри (Annie Knowby), Дэн Хикс (Jake), Кэсси ДеПайва (Bobby Joe), Тед Рэйми (Possessed Henrietta), Дениз Бикслер (Linda), Ричард Домайер (Ed Getley), Джон Пикс (Professor Raymond Knowby), Лу Хэнкок (Henrietta Knowby), Сноуи Уинтерс (Dancer), Сид Абрамс (Fake Shemp), Джош Бекер (Fake Shemp)
Описание:
Эш возвращается в дом в лесу. Его подружка одержима демонами и больше не принадлежит себе. Эш в одиночку вынужден опять сражаться со злом.
Рейтинг:

MPAA: R - Лицам до 17 лет обязательно присутствие взрослого
Качество: UHD BDRemux 2160p
Формат: MKV
Видео: HEVC, HDR, 55.1 Мбит/с, 3840x2160, 23.976 кадр/с
Аудио#1: Russian: 48 kHz, AC3, 3/2 (L,C,R,l,r) + LFE ch, ~448 kbps avg |Многоголосый закадровый, CP Digital|
Аудио#2: Russian: 48 kHz, AC3, 3/2 (L,C,R,l,r) + LFE ch, ~384 kbps avg |Многоголосый закадровый, Киномания|
Аудио#3: Ukrainian: 48 kHz, AC3, 2/0 (L,R) ch, ~192 kbps avg |Многоголосый закадровый, 2+2|
Аудио#4: Russian: 48 kHz/24-bit, DTS-HD MA 5.1, ~3640 kbps avg |Двухголосый закадровый, Петр Гланц и Инна Королева|
Аудио#5: Russian: 48 kHz/24-bit, DTS-HD MA 5.1, ~3650 kbps avg |Одноголосый закадровый, Алексей Михалев|
Аудио#6: Russian: 48 kHz/24-bit, DTS-HD MA 5.1, ~3641 kbps avg |Одноголосый закадровый, Юрий Сербин|
Аудио#7: Russian: 48 kHz, AC3, 2/0 (L,R) ch, ~192 kbps avg |Одноголосый закадровый, Андрей Гаврилов|
Аудио#8: Russian: 48 kHz, AC3, 2/0 (L,R) ch, ~192 kbps avg |Одноголосый закадровый, Зереницын/Белов|
Аудио#9: Russian: 48 kHz, AC3, 2/0 (L,R) ch, ~192 kbps avg |Одноголосый закадровый, Неизвестный "Древний"|
Аудио#10: Russian: 48 kHz, AC3, 2/0 (L,R) ch, ~192 kbps avg |Одноголосый закадровый, Неизвестный с немецкого|
Аудио#11: Russian: 48 kHz, AC3, 5/1 (L,R) ch, ~448 kbps avg |Одноголосый закадровый, Jakob Bellmann|
Аудио#12: English: 48 kHz/24-bit, DTS-HD MA 5.1, ~2795 kbps avg |Dub|
Аудио#13: French: 48 kHz/24-bit, DTS-HD MA 5.1, ~2930 kbps avg |Dub|
Аудио#14: German: 48 kHz/24-bit, DTS-HD MA 2.0, ~1182 kbps avg |Dub|
Аудио#15: Spanish: 48 kHz/24-bit, DTS-HD MA 2.0, ~1221 kbps avg |Dub|
Аудио#16: English: 48 kHz/24-bit, DTS-HD MA 2.0, ~991 kbps avg |Commentary|
Навигация по главам: есть
Complete name : I:\Evil.Dead.2.1987.2160p.BluRay.REMUX.HEVC.DTS-HD.MA.5.1-ExKinoRay.mkv
Format : Matroska
Format version : Version 4 / Version 2
File size : 45.7 GiB
Duration : 1 h 24 min
Overall bit rate : 77.1 Mb/s
Movie name : UHD 2160 || Release by SpaceHD13
Encoded date : UTC 2018-10-26 09:30:16
Writing application : mkvmerge v27.0.0 ('Metropolis') 64-bit
Writing library : libebml v1.3.6 + libmatroska v1.4.9
Cover : Yes
Attachments : cover.jpg

Video
ID : 1
Format : HEVC
Format/Info : High Efficiency Video Coding
Commercial name : HDR10
Format profile : Main 10@L5.1@High
Codec ID : V_MPEGH/ISO/HEVC
Duration : 1 h 24 min
Bit rate : 55.1 Mb/s
Width : 3 840 pixels
Height : 2 160 pixels
Display aspect ratio : 16:9
Frame rate mode : Constant
Frame rate : 23.976 (24000/1001) FPS
Original frame rate : 24.000 FPS
Color space : YUV
Chroma subsampling : 4:2:0 (Type 2)
Bit depth : 10 bits
Bits/(Pixel*Frame) : 0.277
Stream size : 32.6 GiB (71%)
Title : Evil.Dead.2.1987.2160p.BluRay.REMUX.HEVC.DTS-HD.MA.5.1-ExKinoRay
Default : Yes
Forced : No
Color range : Limited
Color primaries : BT.2020
Transfer characteristics : PQ
Matrix coefficients : BT.2020 non-constant
Mastering display color primaries : Display P3
Mastering display luminance : min: 0.0001 cd/m2, max: 1000 cd/m2

Audio #1
ID : 2
Format : AC-3
Format/Info : Audio Coding 3
Codec ID : A_AC3
Duration : 1 h 24 min
Bit rate mode : Constant
Bit rate : 448 kb/s
Channel(s) : 6 channels
Channel positions : Front: L C R, Side: L R, LFE
Sampling rate : 48.0 kHz
Frame rate : 31.250 FPS (1536 SPF)
Bit depth : 16 bits
Compression mode : Lossy
Delay relative to video : 15 s 0 ms
Stream size : 270 MiB (1%)
Title : CP Digital
Language : Russian
Service kind : Complete Main
Default : Yes
Forced : No

Audio #2
ID : 3
Format : AC-3
Format/Info : Audio Coding 3
Codec ID : A_AC3
Duration : 1 h 24 min
Bit rate mode : Constant
Bit rate : 384 kb/s
Channel(s) : 6 channels
Channel positions : Front: L C R, Side: L R, LFE
Sampling rate : 48.0 kHz
Frame rate : 31.250 FPS (1536 SPF)
Bit depth : 16 bits
Compression mode : Lossy
Delay relative to video : 15 s 0 ms
Stream size : 231 MiB (0%)
Title : Киномания
Language : Russian
Service kind : Complete Main
Default : No
Forced : No

Audio #3
ID : 4
Format : AC-3
Format/Info : Audio Coding 3
Codec ID : A_AC3
Duration : 1 h 24 min
Bit rate mode : Constant
Bit rate : 192 kb/s
Channel(s) : 2 channels
Channel positions : Front: L R
Sampling rate : 48.0 kHz
Frame rate : 31.250 FPS (1536 SPF)
Bit depth : 16 bits
Compression mode : Lossy
Delay relative to video : 15 s 0 ms
Stream size : 116 MiB (0%)
Title : 2+2
Language : Ukrainian
Service kind : Complete Main
Default : No
Forced : No

Audio #4
ID : 5
Format : DTS
Format/Info : Digital Theater Systems
Format profile : MA / Core
Codec ID : A_DTS
Duration : 1 h 24 min
Bit rate mode : Variable / Constant
Bit rate : 3 640 kb/s / 1 509 kb/s
Channel(s) : 6 channels
Channel positions : Front: L C R, Side: L R, LFE
Sampling rate : 48.0 kHz
Frame rate : 93.750 FPS (512 SPF)
Bit depth : 24 bits
Compression mode : Lossless / Lossy
Delay relative to video : 15 s 0 ms
Stream size : 2.14 GiB (5%)
Title : Петр Гланц и Инна Королева
Language : Russian
Default : No
Forced : No

Audio #5
ID : 6
Format : DTS
Format/Info : Digital Theater Systems
Format profile : MA / Core
Codec ID : A_DTS
Duration : 1 h 24 min
Bit rate mode : Variable / Constant
Bit rate : 3 634 kb/s / 1 509 kb/s
Channel(s) : 6 channels
Channel positions : Front: L C R, Side: L R, LFE
Sampling rate : 48.0 kHz
Frame rate : 93.750 FPS (512 SPF)
Bit depth : 24 bits
Compression mode : Lossless / Lossy
Delay relative to video : 15 s 0 ms
Stream size : 2.15 GiB (5%)
Title : Алексей Михалев
Language : Russian
Default : No
Forced : No

Audio #6
ID : 7
Format : DTS
Format/Info : Digital Theater Systems
Format profile : MA / Core
Codec ID : A_DTS
Duration : 1 h 24 min
Bit rate mode : Variable / Constant
Bit rate : 3 641 kb/s / 1 509 kb/s
Channel(s) : 6 channels
Channel positions : Front: L C R, Side: L R, LFE
Sampling rate : 48.0 kHz
Frame rate : 93.750 FPS (512 SPF)
Bit depth : 24 bits
Compression mode : Lossless / Lossy
Delay relative to video : 15 s 0 ms
Stream size : 2.14 GiB (5%)
Title : Юрий Сербин
Language : Russian
Default : No
Forced : No

Audio #7
ID : 8
Format : AC-3
Format/Info : Audio Coding 3
Codec ID : A_AC3
Duration : 1 h 24 min
Bit rate mode : Constant
Bit rate : 192 kb/s
Channel(s) : 2 channels
Channel positions : Front: L R
Sampling rate : 48.0 kHz
Frame rate : 31.250 FPS (1536 SPF)
Bit depth : 16 bits
Compression mode : Lossy
Delay relative to video : 15 s 0 ms
Stream size : 116 MiB (0%)
Title : Андрей Гаврилов
Language : Russian
Service kind : Complete Main
Default : No
Forced : No

Audio #8
ID : 9
Format : AC-3
Format/Info : Audio Coding 3
Codec ID : A_AC3
Duration : 1 h 24 min
Bit rate mode : Constant
Bit rate : 192 kb/s
Channel(s) : 2 channels
Channel positions : Front: L R
Sampling rate : 48.0 kHz
Frame rate : 31.250 FPS (1536 SPF)
Bit depth : 16 bits
Compression mode : Lossy
Delay relative to video : 15 s 0 ms
Stream size : 116 MiB (0%)
Title : Зереницын/Белов
Language : Russian
Service kind : Complete Main
Default : No
Forced : No

Audio #9
ID : 10
Format : AC-3
Format/Info : Audio Coding 3
Codec ID : A_AC3
Duration : 1 h 24 min
Bit rate mode : Constant
Bit rate : 192 kb/s
Channel(s) : 2 channels
Channel positions : Front: L R
Sampling rate : 48.0 kHz
Frame rate : 31.250 FPS (1536 SPF)
Bit depth : 16 bits
Compression mode : Lossy
Delay relative to video : 15 s 0 ms
Stream size : 116 MiB (0%)
Title : Неизвестный "Древний"
Language : Russian
Service kind : Complete Main
Default : No
Forced : No

Audio #10
ID : 11
Format : AC-3
Format/Info : Audio Coding 3
Codec ID : A_AC3
Duration : 1 h 24 min
Bit rate mode : Constant
Bit rate : 192 kb/s
Channel(s) : 2 channels
Channel positions : Front: L R
Sampling rate : 48.0 kHz
Frame rate : 31.250 FPS (1536 SPF)
Bit depth : 16 bits
Compression mode : Lossy
Delay relative to video : 15 s 0 ms
Stream size : 116 MiB (0%)
Title : Неизвестный с немецкого
Language : Russian
Service kind : Complete Main
Default : No
Forced : No

Audio #11
ID : 12
Format : AC-3
Format/Info : Audio Coding 3
Codec ID : A_AC3
Duration : 1 h 24 min
Bit rate mode : Constant
Bit rate : 448 kb/s
Channel(s) : 6 channels
Channel positions : Front: L C R, Side: L R, LFE
Sampling rate : 48.0 kHz
Frame rate : 31.250 FPS (1536 SPF)
Bit depth : 16 bits
Compression mode : Lossy
Delay relative to video : 15 s 0 ms
Stream size : 270 MiB (1%)
Title : Jakob Bellmann
Language : Russian
Service kind : Complete Main
Default : No
Forced : No

Audio #12
ID : 13
Format : DTS
Format/Info : Digital Theater Systems
Format profile : MA / Core
Codec ID : A_DTS
Duration : 1 h 24 min
Bit rate mode : Variable / Constant
Bit rate : 2 795 kb/s / 1 509 kb/s
Channel(s) : 6 channels
Channel positions : Front: L C R, Side: L R, LFE
Sampling rate : 48.0 kHz
Frame rate : 93.750 FPS (512 SPF)
Bit depth : 24 bits
Compression mode : Lossless / Lossy
Stream size : 1.65 GiB (4%)
Title : Оригинал
Language : English
Default : No
Forced : No

Audio #13
ID : 14
Format : DTS
Format/Info : Digital Theater Systems
Format profile : MA / Core
Codec ID : A_DTS
Duration : 1 h 24 min
Bit rate mode : Variable / Constant
Bit rate : 2 930 kb/s / 1 509 kb/s
Channel(s) : 6 channels
Channel positions : Front: L C R, Side: L R, LFE
Sampling rate : 48.0 kHz
Frame rate : 93.750 FPS (512 SPF)
Bit depth : 24 bits
Compression mode : Lossless / Lossy
Stream size : 1.73 GiB (4%)
Language : French
Default : No
Forced : No

Audio #14
ID : 15
Format : DTS
Format/Info : Digital Theater Systems
Format profile : MA / Core
Codec ID : A_DTS
Duration : 1 h 24 min
Bit rate mode : Variable / Constant
Bit rate : 1 182 kb/s / 768 kb/s
Channel(s) : 2 channels
Channel positions : Front: L R
Sampling rate : 48.0 kHz
Frame rate : 93.750 FPS (512 SPF)
Bit depth : 24 bits
Compression mode : Lossless / Lossy
Stream size : 714 MiB (2%)
Language : German
Default : No
Forced : No

Audio #15
ID : 16
Format : DTS
Format/Info : Digital Theater Systems
Format profile : MA / Core
Codec ID : A_DTS
Duration : 1 h 24 min
Bit rate mode : Variable / Constant
Bit rate : 1 221 kb/s / 768 kb/s
Channel(s) : 2 channels
Channel positions : Front: L R
Sampling rate : 48.0 kHz
Frame rate : 93.750 FPS (512 SPF)
Bit depth : 24 bits
Compression mode : Lossless / Lossy
Stream size : 738 MiB (2%)
Language : Spanish
Default : No
Forced : No

Audio #16
ID : 17
Format : DTS
Format/Info : Digital Theater Systems
Format profile : MA / Core
Codec ID : A_DTS
Duration : 1 h 24 min
Bit rate mode : Variable / Constant
Bit rate : 991 kb/s / 768 kb/s
Channel(s) : 2 channels
Channel positions : Front: L R
Sampling rate : 48.0 kHz
Frame rate : 93.750 FPS (512 SPF)
Bit depth : 16 bits
Compression mode : Lossless / Lossy
Stream size : 598 MiB (1%)
Language : English
Default : No
Forced : No

Text #1
ID : 18
Format : PGS
Muxing mode : zlib
Codec ID : S_HDMV/PGS
Codec ID/Info : Picture based subtitle format used on BDs/HD-DVDs
Duration : 1 h 21 min
Bit rate : 7 675 b/s
Count of elements : 694
Stream size : 4.47 MiB (0%)
Title : full
Language : Russian
Default : Yes
Forced : No

Text #2
ID : 19
Format : PGS
Muxing mode : zlib
Codec ID : S_HDMV/PGS
Codec ID/Info : Picture based subtitle format used on BDs/HD-DVDs
Duration : 1 h 20 min
Bit rate : 14.4 kb/s
Count of elements : 1198
Stream size : 8.30 MiB (0%)
Title : full
Language : English
Default : No
Forced : No

Text #3
ID : 20
Format : PGS
Muxing mode : zlib
Codec ID : S_HDMV/PGS
Codec ID/Info : Picture based subtitle format used on BDs/HD-DVDs
Duration : 2 s 333 ms
Bit rate : 86.6 kb/s
Count of elements : 2
Stream size : 24.7 KiB (0%)
Language : French
Default : No
Forced : No

Text #4
ID : 21
Format : PGS
Muxing mode : zlib
Codec ID : S_HDMV/PGS
Codec ID/Info : Picture based subtitle format used on BDs/HD-DVDs
Duration : 1 h 20 min
Bit rate : 10.4 kb/s
Count of elements : 720
Stream size : 6.05 MiB (0%)
Title : forced
Language : French
Default : No
Forced : No

Text #5
ID : 22
Format : PGS
Muxing mode : zlib
Codec ID : S_HDMV/PGS
Codec ID/Info : Picture based subtitle format used on BDs/HD-DVDs
Duration : 1 h 23 min
Bit rate : 9 734 b/s
Count of elements : 504
Stream size : 5.83 MiB (0%)
Language : German
Default : No
Forced : No

Text #6
ID : 23
Format : PGS
Muxing mode : zlib
Codec ID : S_HDMV/PGS
Codec ID/Info : Picture based subtitle format used on BDs/HD-DVDs
Duration : 1 h 20 min
Bit rate : 10.0 kb/s
Count of elements : 869
Stream size : 5.75 MiB (0%)
Language : Spanish
Default : No
Forced : No

Text #7
ID : 24
Format : PGS
Muxing mode : zlib
Codec ID : S_HDMV/PGS
Codec ID/Info : Picture based subtitle format used on BDs/HD-DVDs
Duration : 1 h 24 min
Bit rate : 45.0 kb/s
Count of elements : 2564
Stream size : 27.0 MiB (0%)
Language : French
Default : No
Forced : No

Text #8
ID : 25
Format : PGS
Muxing mode : zlib
Codec ID : S_HDMV/PGS
Codec ID/Info : Picture based subtitle format used on BDs/HD-DVDs
Duration : 1 h 23 min
Bit rate : 48.2 kb/s
Count of elements : 2320
Stream size : 28.9 MiB (0%)
Title : forced
Language : German
Default : No
Forced : No

Menu
00:00:00.000 : :Chapter 1
00:06:57.666 : :Chapter 2
00:14:24.291 : :Chapter 3
00:22:28.291 : :Chapter 4
00:26:41.166 : :Chapter 5
00:31:36.958 : :Chapter 6
00:46:41.875 : :Chapter 7
00:56:35.458 : :Chapter 8
01:05:13.958 : :Chapter 9
01:07:23.416 : :Chapter 10
01:14:00.833 : :Chapter 11
01:21:11.083 : :Chapter 12
pb.wtf



Скачать Зловещие мертвецы 2 через торрент https://c.radikal.ru/c25/1810/a5/b29975c1e9c5.jpg Скачать фильм Зловещие мертвецы 2 через торрент бесплантно в хорошем качестве Описание: Эш возвращается в дом в лесу. Его подружка одержима демонами и больше не принадлежит себе. Эш в одиночку вынужден опять сражаться ... 5 10 1
Торрент: Зарегистрирован [2018-10-26 11:42] · скачан: 18 раз
Статус: √ проверено
Размер: 45.74 GB
Как cкачать? Как скачать Зловещие мертвецы 2 через торрент | qTorrent

28-11-2019 20:33  

Отключить всю рекламу на сайте

26-10-2018 12:07 Зловещие мертвецы 2 Скачать торрент  

Самая лучшая из 3 х частейpb.wtf



    Дорогой пользователь! Огромная просьба, поблагодарите релизера, оцените раздачу и оставьте свои комментарий, если Вы скачали Зловещие мертвецы 2 через торрент бесплатно! Внесите свою лепту в развитие PiratBit!
    Комментировать посты могут только пользователи прошедшие не сложную регистрацию
    Показать сообщения:    

    Зловещие мертвецы 2 через торрент
    Скачать бесплатно Зловещие мертвецы 2
    Зловещие мертвецы 2 скачать торрент
    Зловещие мертвецы 2 смотреть онлайн
    Cкачать фильм Зловещие мертвецы 2 бесплатно
    Зловещие мертвецы 2 скачать торрент в хорошем качестве
    Зловещие мертвецы 2 смотреть онлайн бесплатно в хорошем качестве


    Вы не можете начинать темы
    Вы не можете отвечать на сообщения
    Вы не можете редактировать свои сообщения
    Вы не можете удалять свои сообщения
    Вы не можете голосовать в опросах
    Вы не можете прикреплять файлы к сообщениям
    Вы можете скачивать файлы