Ссылка на приватное зеркало нашего сайта всего за 1$. Внимание количество ограничено!!!

2 сезон

iTunes

1 сезон

1

2 сезон

2 сезон

iTunes

1 сезон

RePack

30

Новинка

ВАЖНО

ИГРА 18+

pack

RePack

MK11
pack

Забери бонус

RePack

jed

!!Акция!!

Alien_Rage

RePack

fifa19

RePack

Assassins Creed: Odyssey

RePack

NEED FOR SPEED™ PAYBACK

4 сезон

9 сезон

Бесстыжие 9 сезон

Все сериалы

все сериалы на PB.wtf

RePack

FAR CRY 5
  

Гражданская жена / Серии: 1-4 из 4 (Андрей Красавин) [2018, мелодрама, SATRip] pb.wtf

Гражданская жена через торрент pb.wtf

Размер: 2.41 GB | Добавлен: 2 года 1 мес. назад | Торрент скачан:84 раза
Скачать  

27-10-2018 20:32 Гражданская жена Скачать торрент  

Гражданская женаГод выпуска: 2018
Страна: Россия
Жанр: мелодрама
Продолжительность: ~ 00:45:00
Субтитры: отсутствуют

Режиссер: Андрей Красавин



В ролях:

Пелагея Невзорова, Денис Васильев, Евгений Славский, Артем Крылов, Елена Симонова, Ася Калинина, Дарья Токарева

Описание:

Жизнь с детства не баловала Аню. Девочка рано потеряла родителей и прошла все тяготы жизни в детдоме. Но, словно оправдывая свою фамилию Неунывалова, она никогда не опускала руки. После стольких бед судьба свела ее с Павлом, успешным и красивым мужчиной. Анна и Павел были счастливы и готовились к свадьбе. Но на пути влюбленных появляются препятствия - мать Павла всеми силами пытается избавиться от девицы «без роду без племени», а брат, который с детства завидовал Павлу, объявляет паре настоящую войну - и в один момент Аня Неунывалова остается одна, с ребенком под сердцем, без средств к существованию и крыши над головой...

Качество: SATRip
Формат: AVI

Видео: XviD, ~ 1800 Кбит/с, 720x400
Аудио: MP3, 2 ch, 128 Кбит/с
скриншот  скриншот  скриншот  

Общее
Полное имя : E:\Grazhdanskaya.zhena.SATRip\Grazhdanskaya.zhena.01.SATRip.avi
Формат : AVI
Формат/Информация : Audio Video Interleave
Размер файла : 596 Мбайт
Продолжительность : 42 м. 59 с.
Общий поток : 1938 Кбит/сек
Программа кодирования : VirtualDubMod 1.5.10.3 | www.virtualdub-fr.org || (build 2550/release)
Библиотека кодирования : VirtualDubMod build 2550/release

Видео
Идентификатор : 0
Формат : MPEG-4 Visual
Профиль формата : Advanced Simple@L5
Настройки формата : BVOP2
Параметр BVOP формата : 2
Параметр QPel формата : Нет
Параметр GMC формата : Без точки перехода
Параметр матрицы формата : Default (H.263)
Идентификатор кодека : XVID
Идентификатор кодека/Подсказка : XviD
Продолжительность : 42 м. 59 с.
Битрейт : 1800 Кбит/сек
Ширина : 720 пикселей
Высота : 400 пикселей
Соотношение сторон : 16:9
Частота кадров : 25,000 кадров/сек
Цветовое пространство : YUV
Субдискретизация насыщенности : 4:2:0
Битовая глубина : 8 бит
Тип развёртки : Прогрессивная
Метод сжатия : С потерями
Бит/(Пиксели*Кадры) : 0.250
Размер потока : 553 Мбайт (93%)
Библиотека кодирования : XviD 1.2.1 (UTC 2008-12-04)

Аудио
Идентификатор : 1
Формат : MPEG Audio
Версия формата : Version 1
Профиль формата : Layer 3
Настройки формата : Joint stereo / MS Stereo
Идентификатор кодека : 55
Идентификатор кодека/Подсказка : MP3
Продолжительность : 42 м. 59 с.
Вид битрейта : Постоянный
Битрейт : 128 Кбит/сек
Каналы : 2 канала
Частота : 48,0 КГц
Частота кадров : 41,667 кадра/сек (1152 SPF)
Метод сжатия : С потерями
Размер потока : 39,4 Мбайт (7%)
Выравнивание : Соединение по промежуткам
Продолжительность промежутка : 40 мс. (1,00 видеокадр)
Время предзагрузки промежутка : 504 мс.
Библиотека кодирования : LAME3.99r
Настройки программы : -m j -V 4 -q 9 -lowpass 17 -b 128

pb.wtf



Скачать Гражданская жена через торрент https://i92.fastpic.ru/big/2018/1027/3e/ce1903960d723f41f26cba24112bdb3e.jpg Скачать фильм Гражданская жена через торрент бесплантно в хорошем качестве Описание: Жизнь с детства не баловала Аню. Девочка рано потеряла родителей и прошла все тяготы жизни в детдоме. Но, словно оправдывая свою ... 10 10 6
Торрент: Зарегистрирован [2018-10-27 20:32] · скачан: 84 раз
Статус: √ проверено
Размер: 2.41 GB
Как cкачать? Как скачать Гражданская жена через торрент | qTorrent

28-11-2019 20:33  

Отключить всю рекламу на сайте

    Дорогой пользователь! Огромная просьба, поблагодарите релизера, оцените раздачу и оставьте свои комментарий, если Вы скачали Гражданская жена через торрент бесплатно! Внесите свою лепту в развитие PiratBit!
    Комментировать посты могут только пользователи прошедшие не сложную регистрацию
    Показать сообщения:    

    Гражданская жена через торрент
    Скачать бесплатно Гражданская жена
    Гражданская жена скачать торрент
    Гражданская жена смотреть онлайн
    Cкачать фильм Гражданская жена бесплатно
    Гражданская жена скачать торрент в хорошем качестве
    Гражданская жена смотреть онлайн бесплатно в хорошем качестве


    Вы не можете начинать темы
    Вы не можете отвечать на сообщения
    Вы не можете редактировать свои сообщения
    Вы не можете удалять свои сообщения
    Вы не можете голосовать в опросах
    Вы не можете прикреплять файлы к сообщениям
    Вы можете скачивать файлы