Ссылка на приватное зеркало нашего сайта всего за 1$. Внимание количество ограничено!!!

2 сезон

iTunes

1 сезон

1

2 сезон

2 сезон

iTunes

1 сезон

RePack

30

Ultimate

ВАЖНО

ИГРА 18+

pack

RePack

MK11
pack

Забери бонус

RePack

jed

!!Акция!!

Alien_Rage

RePack

fifa19

RePack

Assassins Creed: Odyssey

RePack

NEED FOR SPEED™ PAYBACK

4 сезон

9 сезон

Бесстыжие 9 сезон

Все сериалы

все сериалы на PB.wtf

RePack

FAR CRY 5
  

Неуловимые / Сезон: 1 / Серии: 1-8 из 8 (Владимир Виноградов) [2018, комедия, приключения, WEB-DL 1080p] pb.wtf

Неуловимые через торрент pb.wtf

Размер: 14.6 GB | Добавлен: 1 год 11 мес. назад | Торрент скачан:27 раз
Скачать  

07-11-2018 01:35 Неуловимые Скачать торрент  

Неуловимые
Год выпуска: 2018
Страна: Россия
Жанр: комедия, приключения
Продолжительность: ~ 00:48:00
Субтитры: отсутствуют

Режиссер: Владимир Виноградов



В ролях:

Оксана Фандера, Сергей Газаров, Александр Лыков, Юрий Стоянов, Евгений Березин, Таисия Шипилова, Николай Сороканов, Максим Емельянов, Владислав Тирон, Александр Фисенко

Описание:

Все газеты мира облетает весть, что Давид Ойстрах отыграет концерт на уникальном инструменте в родной Одессе! Из Москвы скрипку перевозят в специальном вагоне поезда. Два легендарных черноморских вора Лаврик и Кобзарь решаются на «ограбление века»: они задумали похитить подарок королевы. Чтобы провернуть задуманное, опытные мастера собирают целую команду из молодых умельцев воровского дела. В это же время на родину после почти двадцати лет отсутствия возвращается красавица и авантюристка, некогда настоящая королева околокриминального мира - Фирочка Танцорка. Операция принимает неожиданный поворот, когда в дело вмешивается любовь.

Качество: WEB-DL 1080p
Формат: MKV

Видео: MPEG4 AVC Video, H264, 16:9, 1920x1080, 25 fps, ~6000 kbps, 0.116 bit/pixel
Аудио: AC3 Dolby Digital, 48.0 kHz, 2/0 (L,R) ch, 192 kbps
скриншот  скриншот  скриншот  скриншот  скриншот  

General
Unique ID : 252534063266746721197430556920725703184 (0xBDFC4A9BF6C4991180BA1AC6C6050A10)
Complete name : D:\Neulovimye.2017.WEB-DL.(1080p).Nikolspup\Neulovimye.(01.seriya.iz.08).2017.WEB-DL.(1080p).Nikolspup.mkv
Format : Matroska
Format version : Version 4 / Version 2
File size : 2.03 GiB
Duration : 47 min 29 s
Overall bit rate mode : Constant
Overall bit rate : 6 130 kb/s
Encoded date : UTC 2018-11-06 19:10:51
Writing application : mkvmerge v7.8.0 ('River Man') 32bit built on Mar 27 2015 16:18:02
Writing library : libebml v1.3.1 + libmatroska v1.4.2

Video
ID : 1
Format : AVC
Format/Info : Advanced Video Codec
Format profile : High@L4.1
Format settings : 2 Ref Frames
Format settings, CABAC : No
Format settings, ReFrames : 2 frames
Codec ID : V_MPEG4/ISO/AVC
Duration : 47 min 29 s
Bit rate mode : Constant
Bit rate : 6 000 kb/s
Width : 1 920 pixels
Height : 1 080 pixels
Display aspect ratio : 16:9
Frame rate mode : Constant
Frame rate : 25.000 FPS
Standard : PAL
Color space : YUV
Chroma subsampling : 4:2:0
Bit depth : 8 bits
Scan type : Progressive
Bits/(Pixel*Frame) : 0.116
Stream size : 1.97 GiB (97%)
Default : Yes
Forced : No
Color range : Limited
Color primaries : BT.709
Transfer characteristics : BT.709
Matrix coefficients : BT.709

Audio
ID : 2
Format : AC-3
Format/Info : Audio Coding 3
Codec ID : A_AC3
Duration : 47 min 29 s
Bit rate mode : Constant
Bit rate : 192 kb/s
Channel(s) : 2 channels
Channel positions : Front: L R
Sampling rate : 48.0 kHz
Frame rate : 31.250 FPS (1536 SPF)
Bit depth : 16 bits
Compression mode : Lossy
Stream size : 65.2 MiB (3%)
Language : Russian
Service kind : Complete Main
Default : Yes
Forced : No

Внимание! Раздача ведётся путём добавления новых серий; при каждом добавлении создаётся новый торрент. Чтобы начать докачку новой серии, пользователям необходимо сделать следующее:
(1) остановить скачивание,
(2) удалить старый торрент у себя из клиента (старые серии удалять не надо),
(3) скачать новый торрент и запустить его у себя в клиенте вместо старого, при этом указать клиенту путь в старую папку куда и должно происходить скачивание новых серий.
Ваш клиент при этом должен произвести хеширование (проверку) старой папки (если не производит сам - помогите ему сделать это), и будет докачивать только те серии которых у вас ещё нет. Старые серии при этом не удаляются, а продолжают раздаваться!
Eсли вы уже удалили старые серии, то предотвратить повторную закачку старых серий можно, отжав галочку в соответствующих местах при запуске нового торрента. По возможности, желательно не удалять старые серии как можно дольше чтобы релизёр не столько продолжал раздавать старые серии, а смог сконцентрироваться на новых.
pb.wtf



Скачать Неуловимые через торрент http://i98.fastpic.ru/big/2018/1106/81/0602eb1368233961f65e3b138aa03681.jpg Скачать фильм Неуловимые через торрент бесплантно в хорошем качестве Описание: Все газеты мира облетает весть, что Давид Ойстрах отыграет концерт на уникальном инструменте в родной Одессе! Из Москвы скрипку ... 10 10 3
Торрент: Зарегистрирован [2018-12-30 13:36] · скачан: 27 раз
Статус: √ проверено
Размер: 14.6 GB
Как cкачать? Как скачать Неуловимые через торрент | qTorrent

% Раздел Тема Автор DL S | L
Наши сериалы [ 18.29 GB ] Неуловимые / Сезон: 1 / Серии: 1-8 из 8 [2018 HDTV 1080p] [Русский] R.G.Generalfilm White Smoke Скачать
1 | 0
Наши сериалы [ 5.09 GB ] Неуловимые / Сезон: 1 / Серии: 1-8 из 8 [2018 WEB-DLRip] bober100 Скачать
1 | 0

28-11-2019 20:33  

Отключить всю рекламу на сайте

    Дорогой пользователь! Огромная просьба, поблагодарите релизера, оцените раздачу и оставьте свои комментарий, если Вы скачали Неуловимые через торрент бесплатно! Внесите свою лепту в развитие PiratBit!
    Комментировать посты могут только пользователи прошедшие не сложную регистрацию
    Показать сообщения:    

    Неуловимые через торрент
    Скачать бесплатно Неуловимые
    Неуловимые скачать торрент
    Неуловимые смотреть онлайн
    Cкачать фильм Неуловимые бесплатно
    Неуловимые скачать торрент в хорошем качестве
    Неуловимые смотреть онлайн бесплатно в хорошем качестве


    Вы не можете начинать темы
    Вы не можете отвечать на сообщения
    Вы не можете редактировать свои сообщения
    Вы не можете удалять свои сообщения
    Вы не можете голосовать в опросах
    Вы не можете прикреплять файлы к сообщениям
    Вы можете скачивать файлы