Лицензия

MVO

1

1 сезон

Лицензия

Лицензия

13

MVO

1 сезон

Deluxe Edition

pack

Рекомендуем

30

Repack

ВАЖНО

ВАЖНО

Ghostwire

RePack

jed

RePack

fifa19

RePack

RDR2

RePack

NEED FOR SPEED™ PAYBACK

RePack

Кинопоиск HD

 Острые козырьки 6 сезон

6 сезон

FAR CRY 6

RePack

Лицензия

MVO

1

1 сезон

1 сезон

Лицензия

  

Железяки / Yak (Прапас Чолсаранонт) [2012, мультфильм, DVDRip, Дубляж,лицензия]

Железяки через торрент pb.wtf

Размер: 1.46 GB | Добавлен: 9 лет 2 мес. назад | Торрент скачан:2410 раз
Смотреть онлайн Железяки | Скачать   

26-07-2013 20:00 Железяки Скачать торрент  

Железяки / Yak
«Дружба без памяти»


Год выпуска: 2012
Страна: Таиланд
Жанр: мультфильм
Продолжительность: 01:33:08
Перевод: Профессиональный (дублированный)Лицензия

Режиссер: Прапас Чолсаранонт

В ролях: Баврибун Чанреанг / Bawriboon Chanreuang (Kumbhakarna, озвучка), Сантисук Промсири / Santisuk Promsiri (Na Khiaw, Ravana, озвучка), Удом Таепханит / Udom Taephanit (Brooks, озвучка), Керрисак Удомнак / Kerttisak Udomnak (Phuak, Hanuman, озвучка), Сергей Сулименко , Антон Савенков (Kumbhakarna), Александр Ревва (Na Khiaw, Ravana), Владимир Рыбальченко, Михаил Галустян(Phuak, Hanuman)


Описание: Вернувшись к жизни после долгих лет сна, роботы Здоровяк и Микро с удивлением обнаруживают, что их тела прочно соединены крепкой цепью. Увы, время стерло им память, и теперь они вынуждены вдвоем отправиться в трудное и опасное путешествие, чтобы вновь обрести свободу. Долгие странствия, наполненные удивительными приключениями, трудными испытаниями и великими подвигами, превращают наших героев в настоящих друзей. Но их дружбе предстоит пройти еще одно, самое главное испытание…

Качество: DVDRip
Формат: AVI
Видео кодек: XviD
Аудио кодек: AC3
Видео: 720x384 (1.875:1), 25.000 fps, XviD, 1 974 Kbps
Аудио: Аудио #1: AC3, 256 Kbps, 48.0 KHz, 6 ch
СЭМПЛ

Код:

General
Complete name                    : Zhelezyaki.2012.avi
Format                           : AVI
Format/Info                      : Audio Video Interleave
File size                        : 1.46 GiB
Duration                         : 1h 33mn
Overall bit rate                 : 2 239 Kbps
Writing application              : VirtualDubMod 1.5.10.3 | www.virtualdub-fr.org || (build 2550/release)
Writing library                  : VirtualDubMod build 2550/release

Video
ID                               : 0
Format                           : MPEG-4 Visual
Format profile                   : Advanced [email protected]
Format settings, BVOP            : Yes
Format settings, QPel            : No
Format settings, GMC             : No warppoints
Format settings, Matrix          : Custom
Codec ID                         : XVID
Codec ID/Hint                    : XviD
Duration                         : 1h 33mn
Bit rate                         : 1 974 Kbps
Width                            : 720 pixels
Height                           : 384 pixels
Display aspect ratio             : 1.875
Frame rate                       : 25.000 fps
Color space                      : YUV
Chroma subsampling               : 4:2:0
Bit depth                        : 8 bits
Scan type                        : Progressive
Bits/(Pixel*Frame)               : 0.286
Stream size                      : 1.28 GiB (88%)
Writing library                  : XviD 65

Audio
ID                               : 1
Format                           : AC-3
Format/Info                      : Audio Coding 3
Mode extension                   : CM (complete main)
Codec ID                         : 2000
Duration                         : 1h 33mn
Bit rate mode                    : Constant
Bit rate                         : 256 Kbps
Channel(s)                       : 6 channels
Channel positions                : Front: L C R, Side: L R, LFE
Sampling rate                    : 48.0 KHz
Bit depth                        : 16 bits
Stream size                      : 171 MiB (11%)
Alignment                        : Split accross interleaves
Interleave, duration             : 40 ms (1.00 video frame)
Interleave, preload duration     : 500 ms





Скачать Железяки через торрент http://i46.fastpic.ru/big/2013/0726/9e/0beeacefccb978f759b34a9e54d0bc9e.jpg Скачать, смотреть онлайн Железяки бесплантно в хорошем качестве Описание: Вернувшись к жизни после долгих лет сна, роботы Здоровяк и Микро с удивлением обнаруживают, что их тела прочно соединены крепкой ... 9.2 10 67
Info! Золотая раздача, скачанное не засчитывается.
Торрент: Зарегистрирован [2013-07-26 20:00] · скачан: 2 410 раз
Статус: √ проверено
Размер: 1.46 GB
Как cкачать? Как скачать Железяки через торрент | UTorrent

% Раздел Тема Автор DL S | L
Зарубежные Мультфильмы (DVD) [ 3.92 GB ] Железяки / Yak | | Железяки / Yak (Прапас Чолсаранонт / Prapas Cholsaranont voovaz Скачать
1 | 0
Иностранные мультфильмы [ 745 MB ] Железяки / Yak | Дубляж | DVDRip, Дубляж, лицензия МАКС1 Скачать
1 | 0

28-11-2019 20:33  

Отключить вcю реклaмy на сайте

29-08-2013 04:49 Железяки Скачать торрент  

полный бред :jest3: :shoot2: :shoot2: :shoot2:



10-12-2013 14:37 Железяки Скачать торрент  

ОхуенныЙЙ Мульт!!!



02-11-2018 12:58 Железяки Скачать торрент  

Помогите скачать



07-11-2018 15:58 Железяки Скачать торрент  

Плиизззз скорости



    Дорогой пользователь! Огромная просьба, поблагодарите релизера, оцените раздачу и оставьте свои комментарий, если Вы скачали Железяки через торрент бесплатно!!
    Комментировать посты могут только пользователи прошедшие не сложную регистрацию
    Показать сообщения:    


    Железяки через торрент
    Скачать бесплатно Железяки
    Железяки скачать торрент
    Железяки смотреть онлайн
    Cкачать фильм Железяки бесплатно
    Железяки скачать торрент в хорошем качестве
    Железяки смотреть онлайн бесплатно в хорошем качестве
    Вы не можете начинать темы
    Вы не можете отвечать на сообщения
    Вы не можете редактировать свои сообщения
    Вы не можете удалять свои сообщения
    Вы не можете голосовать в опросах
    Вы не можете прикреплять файлы к сообщениям
    Вы можете скачивать файлы