Доктор Стрэндж

Лицензия

Добыча

Дубляж

Дом дракона

1 сезон

Тор

Дубляж

В эфире

Дубляж

Там, где раки поют

MVO

Властелин колец

1 сезон

GLOBAL

pack

Рекомендуем

30

Пиратка

ВАЖНО

ВАЖНО

Ghostwire

Пиратка

jed

RePack

nioh2

RePack

RDR2

RePack

NEED FOR SPEED™ PAYBACK

RePack

скачать торрент

Кинопоиск HD

Острые козырьки 6 сезон

6 сезон

FAR CRY 6

RePack

скачать торрент

Лицензия

скачать торрент

MVO

1

1 сезон

скачать торрент

1 сезон

скачать торрент

Лицензия

  

Бар. На грудь / Сезон: 1 / Серии: 1-8 из 8 (Ирина Вилкова) [2018, Комедия, драма, WEBRip 720p]

Бар. На грудь через торрент pb.wtf

Размер: 1.96 GB | Добавлен: 3 года 11 мес. назад | Торрент скачан:273 раза
Смотреть онлайн | Скачать   

01-11-2018 17:06 Бар. На грудь Скачать торрент  

Бар. На грудьГод выпуска: 2018
Страна: Россия
Жанр: Комедия, драма
Продолжительность: ~ 00:10:00
Субтитры: отсутствуют

Режиссер: Ирина Вилкова



В ролях:

Денис Пьянов, Вера Фомина, Антон Сухарев, Кирилл Полухин, Татьяна Малыщицкая, Александр Баширов, Анна Иванина, Дмитрий Аверин, Ирина Вилкова, Анна Жмаева

Описание:

Вновь обремененные насущными проблемами, жители Петербурга приходят в уже родной им бар — «На грудь», утолить свою тоску и обсудить воображаемую безнадежность бытия. Ведь там их всегда выслушают и… нальют. Страдать становится куда приятней, а посетителей со своими душещипательными историями — все больше.

Качество: WEBRip 720p
Формат: MKV

Видео: MPEG-4 AVC, ~ 3420 Кбит/с, 1280x720
Аудио: AC3, 2 ch, 192 Кбит/с
скриншот  скриншот  скриншот  скриншот  

Общее
Уникальный идентификатор : 326976158468889921736273850649632539530 (0xF5FD5145AFF4368C565EEAB5EAFB838A)
Полное имя : D:\Бар. На грудь (2018)\Серия 01.mkv
Формат : Matroska
Версия формата : Version 4 / Version 2
Размер файла : 202 Мбайт
Продолжительность : 7 м. 40 с.
Общий поток : 3683 Кбит/сек
Программа кодирования : Lavf57.71.100
Библиотека кодирования : Lavf57.71.100 / Lavf57.71.100
ErrorDetectionType : Per level 1

Видео
Идентификатор : 1
Формат : AVC
Формат/Информация : Advanced Video Codec
Профиль формата : [email protected]
Параметр CABAC формата : Да
Параметр RefFrames формата : 1 кадр
Параметр GOP формата : M=1, N=12
Идентификатор кодека : V_MPEG4/ISO/AVC
Продолжительность : 7 м. 40 с.
Битрейт : 3418 Кбит/сек
Ширина : 1280 пикселей
Высота : 720 пикселей
Соотношение сторон : 16:9
Режим частоты кадров : Постоянный
Частота кадров : 25,000 кадров/сек
Стандарт вещания : Component
Цветовое пространство : YUV
Субдискретизация насыщенности : 4:2:0
Битовая глубина : 8 бит
Тип развёртки : Прогрессивная
Бит/(Пиксели*Кадры) : 0.148
Размер потока : 188 Мбайт (93%)
Default : Да
Forced : Нет
Цветовой диапазон : Limited
DURATION : 00:07:40.840000000
HANDLER_NAME : VideoHandler

Аудио
Идентификатор : 2
Формат : AC-3
Формат/Информация : Audio Coding 3
Расширение режима : CM (complete main)
Параметр Endianness формата : Big
Идентификатор кодека : A_AC3
Продолжительность : 7 м. 40 с.
Вид битрейта : Постоянный
Битрейт : 192 Кбит/сек
Каналы : 2 канала
Расположение каналов : Front: L R
Частота : 48,0 КГц
Частота кадров : 31,250 кадров/сек (1536 spf)
Битовая глубина : 32 бит
Метод сжатия : С потерями
Размер потока : 10,5 Мбайт (5%)
Default : Да
Forced : Нет
DURATION : 00:07:40.896000000
HANDLER_NAME : SoundHandler

Когда раздача ведётся путём добавления новых серий, при каждом добавлении создётся новый торрент. Чтобы начать докачку новой серии, пользователям необходимо сделать следующее:
(1) остановить скачивание,
(2) удалить старый торрент у себя из клиента (старые серии удалять не надо),
(3) скачать новый торрент и запустить его у себя в клиенте вместо старого, при этом указать клиенту путь в старую папку, куда и должно происходить скачивание новых серий.
Ваш клиент при этом должен произвести хеширование (проверку) старой папки (если не производит сам - помогите ему сделать это), и будет докачивать только те серии, которых у вас ещё нет. Старые серии при этом не удаляются, а продолжают раздаваться!
Eсли вы уже удалили старые серии, то предотвратить повторную закачку старых серий можно, отжав галочку в соответсвующих местах при запуске нового торрента. По возможности, желательно не удалять старые серии как можно дольше, чтобы релизёр не столько продолжал раздавать старые серии, а смог сконцентрироваться на новых.



Скачать Бар. На грудь через торрент https://pic1.kartinco.top/images/11/ajc5b.jpg Скачать, смотреть онлайн Бар. На грудь бесплантно в хорошем качестве Описание: Вновь обремененные насущными проблемами, жители Петербурга приходят в уже родной им бар — «На грудь», утолить свою тоску и ... 10 10 7
Торрент: Зарегистрирован [2018-12-28 11:33] · скачан: 273 раз
Статус: √ проверено
Размер: 1.96 GB
Как cкачать? Как скачать Бар. На грудь через торрент | UTorrent




Последний раз редактировалось: bober100 (2018-12-28 11:33), всего редактировалось 1 раз

28-11-2019 20:33  


Отключить вcю реклaмy на сайте, в т.ч. и в плеере онлайн просмотра!

09-11-2018 08:06 Бар. На грудь Скачать торрент  

Мда режиссер молодая актриса))) Сама еще играть не научилась а уже режиссер



09-11-2018 08:49 Бар. На грудь Скачать торрент  

andi555777 писал(а):

Мда режиссер молодая актриса))) Сама еще играть не научилась а уже режиссер

Из всего потока российского "дешеврального искукства" в последние годы, этот микросерийный минисериал, прям таки, реально хорош. Сам живу в "культурной столице" и могу свидетельствовать, что дух и манеры среднего петербуржца переданы идеально. Юмор может и несёт определённую локальность, и не многим дастся "на зубок", но в целом картинка смотрится и диалоги с монологами слушаются легко.
ПыСы: Режиссёр это не "прокачанный" актёр. Если актёру, даже молодому, удаётся ещё и снимать - встаю и громко кланяюсь в его сторону.



09-11-2018 09:12 Бар. На грудь Скачать торрент  

Глянем



29-12-2018 09:01 Бар. На грудь Скачать торрент  

Спасибо,дождался.В последней серии пересолили...



    Дорогой пользователь! Огромная просьба, поблагодарите релизера, оцените раздачу и оставьте свои комментарий, если Вы скачали Бар. На грудь через торрент бесплатно!!
    Комментировать посты могут только пользователи прошедшие не сложную регистрацию
    Показать сообщения:    


    Бар. На грудь через торрент
    Скачать бесплатно Бар. На грудь
    Бар. На грудь скачать торрент
    Бар. На грудь смотреть онлайн
    Cкачать фильм Бар. На грудь бесплатно
    Бар. На грудь скачать торрент в хорошем качестве
    Бар. На грудь смотреть онлайн бесплатно в хорошем качестве
    Вы не можете начинать темы
    Вы не можете отвечать на сообщения
    Вы не можете редактировать свои сообщения
    Вы не можете удалять свои сообщения
    Вы не можете голосовать в опросах
    Вы не можете прикреплять файлы к сообщениям
    Вы можете скачивать файлы
    Бар. На грудь / Сезон: 1 / Серии: 1-8 из 8 [2018, Комедия, драма, WEBRip 720p] смотреть онлайн, скачать торрент picoco.icu