Мега распродажа FORZA HORIZON 4 ULTIMATE+ВСЕ DLC+ОНЛАЙН всего за 499р. 349 руб. (супер цена). Внимание количество ограничено!!!

Лицензия

30

iTunes

мы

iTunes

1

1 сезон

Чернобыль

1 сезон

Ральф против интернета

MVO

Покемон. Детектив Пикачу

8 сезон

Игра престолов

iTunes

1+1

ИГРА 18+

pack

ВАЖНО

!!Акция!!

Alien_RageХит недели

RePack

Resident Evil 21
pack

RePack

Metro:Exodus

!!Акция!!

Alien_Rage

RePack

fifa19

RePack

Assassins Creed: Odyssey

RePack

NEED FOR SPEED™ PAYBACK

3 сезон

9 сезон

Бесстыжие 9 сезон

Все сериалы

все сериалы на PB.wtf

RePack

FAR CRY 5
Ребята, катастрофически не хватает 2730р. для оплаты серверов за МАЙ (всвязи с блокировками трафик упал в 3 раза), 1-2р., выручайте.
  

Прыжок с тарзанкой / Beonjijeompeureul hada (Дэ Сын Ким) [2001, драма, мелодрама, BDRip 1080p by msltel] VO pb.wtf

Прыжок с тарзанкой через торрент pb.wtf

Размер: 11.53 GB | Добавлен: 7 мес. назад | Торрент скачан:1 раз
Скачать  

21-11-2018 06:30 Прыжок с тарзанкой Скачать торрент  

Название: Прыжок с тарзанкой
Оригинальное название: Beonjijeompeureul hada
Год выпуска: 2001
Страна: Южная Корея
Жанр: драма, мелодрама
Продолжительность: 01:40:36
Перевод: закадровый одноголосый

Режиссер: Дэ Сын Ким
В ролях: Бён Хон Ли, Ын Чжу Ли, Хён Су Ё, Су Хён Хон, Бом Су Ли, Ми Сон Чон, Гун Мин Нам, Чжу Бон Ки, Гап Су Ким

О фильме: В один из дождливых дней 1983 года Ин-у встречает Тхэ-хи. Они влюбляются друг в друга с первого взгляда. Развитию отношений мешает воинская обязанность Ин-у. Тхэ-хи хочет проводить любимого в армию и спешит к нему, но по дороге она погибает в автомобильной аварии...



Качество: BDRip 1080p
Формат: MKV
Видео: MPEG-4 AVC, 14.7 Mбит/с, 1920x1044
Аудио 1: русский, AC3, 192 kbps, 2 ch, 48 kHz [закадровый одноголосый, Den904]
Аудио 2: корейский, DTS, 1509 kbps, 6 ch, 48 kHz [оригинал]
Субтитры 1: русские
Субтитры 2: английские
Главы/чаптеры
Общее
Уникальный идентификатор : 211763045922591690141033017612755529409 (0x9F50144194E852E3B85584BAC3F3EEC1)
Полное имя : D:\Video\Прыжок с тарзанкой.2001.BDRip 1080p by msltel.mkv
Формат : Matroska
Версия формата : Version 4
Размер файла : 11,5 Гбайт
Продолжительность : 1 ч. 40 м.
Общий поток : 16,4 Мбит/сек
Название фильма : Rip by msltel
Дата кодирования : UTC 2018-11-21 06:53:19
Программа кодирования : mkvmerge v8.2.0 ('World of Adventure') 64bit
Библиотека кодирования : libebml v1.3.1 + libmatroska v1.4.2

Видео
Идентификатор : 1
Формат : AVC
Формат/Информация : Advanced Video Codec
Профиль формата : High@L4.1
Настройки формата : CABAC / 4 Ref Frames
Параметр CABAC формата : Да
Параметр RefFrames формата : 4 кадра
Идентификатор кодека : V_MPEG4/ISO/AVC
Продолжительность : 1 ч. 40 м.
Битрейт : 14,7 Мбит/сек
Ширина : 1920 пикселей
Высота : 1044 пикселя
Соотношение сторон : 1,85:1
Режим частоты кадров : Постоянный
Частота кадров : 23,976 (24000/1001) кадра/сек
Цветовое пространство : YUV
Субдискретизация насыщенности : 4:2:0
Битовая глубина : 8 бит
Тип развёртки : Прогрессивная
Бит/(Пиксели*Кадры) : 0.306
Размер потока : 10,3 Гбайт (90%)
Библиотека кодирования : x264 core 155 r2901 7d0ff22
Настройки программы : cabac=1 / ref=4 / deblock=1:-3:-2 / analyse=0x3:0x113 / me=umh / subme=11 / psy=1 / psy_rd=1.00:0.15 / mixed_ref=1 / me_range=32 / chroma_me=1 / trellis=2 / 8x8dct=1 / cqm=0 / deadzone=21,11 / fast_pskip=0 / chroma_qp_offset=-3 / threads=6 / lookahead_threads=1 / sliced_threads=0 / nr=0 / decimate=1 / interlaced=0 / bluray_compat=0 / constrained_intra=0 / bframes=7 / b_pyramid=2 / b_adapt=2 / b_bias=0 / direct=1 / weightb=1 / open_gop=0 / weightp=2 / keyint=230 / keyint_min=23 / scenecut=40 / intra_refresh=0 / rc_lookahead=40 / rc=crf / mbtree=1 / crf=15.8 / qcomp=0.60 / qpmin=0 / qpmax=69 / qpstep=4 / vbv_maxrate=62500 / vbv_bufsize=78125 / crf_max=0.0 / nal_hrd=none / filler=0 / ip_ratio=1.40 / aq=1:1.00
Язык : Korean
Default : Да
Forced : Нет

Аудио #1
Идентификатор : 2
Формат : AC-3
Формат/Информация : Audio Coding 3
Коммерческое название : Dolby Digital
Идентификатор кодека : A_AC3
Продолжительность : 1 ч. 40 м.
Вид битрейта : Постоянный
Битрейт : 192 Кбит/сек
Каналы : 2 канала
Channel layout : L R
Частота : 48,0 КГц
Частота кадров : 31,250 кадров/сек (1536 SPF)
Битовая глубина : 16 бит
Метод сжатия : С потерями
Размер потока : 138 Мбайт (1%)
Заголовок : Den904
Язык : Russian
ServiceKind/String : Complete Main
Default : Да
Forced : Нет

Аудио #2
Идентификатор : 3
Формат : DTS
Формат/Информация : Digital Theater Systems
Идентификатор кодека : A_DTS
Продолжительность : 1 ч. 40 м.
Вид битрейта : Постоянный
Битрейт : 1509 Кбит/сек
Каналы : 6 каналов
Channel layout : C L R Ls Rs LFE
Частота : 48,0 КГц
Частота кадров : 93,750 кадра/сек (512 SPF)
Битовая глубина : 24 бит
Метод сжатия : С потерями
Размер потока : 1,06 Гбайт (9%)
Заголовок : original
Язык : Korean
Default : Нет
Forced : Нет

Текст #1
Идентификатор : 4
Формат : UTF-8
Идентификатор кодека : S_TEXT/UTF8
Идентификатор кодека/Информация : UTF-8 Plain Text
Продолжительность : 1 ч. 38 м.
Битрейт : 64 бит/сек
ElementCount : 930
Размер потока : 46,5 Кбайт (0%)
Заголовок : русские
Язык : Russian
Default : Нет
Forced : Нет

Текст #2
Идентификатор : 5
Формат : UTF-8
Идентификатор кодека : S_TEXT/UTF8
Идентификатор кодека/Информация : UTF-8 Plain Text
Продолжительность : 1 ч. 38 м.
Битрейт : 36 бит/сек
ElementCount : 936
Размер потока : 26,0 Кбайт (0%)
Заголовок : английские
Язык : English
Default : Нет
Forced : Нет

Меню
00:00:00.000 : :Глава 01
00:01:24.000 : :Глава 02
00:05:43.926 : :Глава 03
00:09:04.210 : :Глава 04
00:11:17.259 : :Глава 05
00:16:15.140 : :Глава 06
00:20:51.166 : :Глава 07
00:26:22.998 : :Глава 08
00:31:26.968 : :Глава 09
00:32:40.166 : :Глава 10
00:37:31.415 : :Глава 11
00:44:48.977 : :Глава 12
00:47:27.886 : :Глава 13
00:49:36.848 : :Глава 14
00:54:58.837 : :Глава 15
01:00:17.739 : :Глава 16
01:02:54.729 : :Глава 17
01:06:43.833 : :Глава 18
01:09:17.736 : :Глава 19
01:15:01.663 : :Глава 20
01:18:27.994 : :Глава 21
01:24:08.668 : :Глава 22
01:28:02.443 : :Глава 23
01:34:10.978 : :Глава 24
01:36:12.349 : :Глава 25
pb.wtf



Скачать Прыжок с тарзанкой через торрент https://b.radikal.ru/b28/1811/24/c7f6fdc82356.jpg Скачать фильм Прыжок с тарзанкой через торрент бесплантно в хорошем качестве О фильме: В один из дождливых дней 1983 года Ин-у встречает Тхэ-хи. Они влюбляются друг в друга с первого взгляда. Развитию отношений ... 5 10 1
Info! Золотая раздача, скачанное не засчитывается.
Торрент: Зарегистрирован [2018-11-21 06:30] · скачан: 1 раз
Статус: √ проверено
Размер: 11.53 GB
Как cкачать? Как скачать Прыжок с тарзанкой через торрент | qTorrent

% Раздел Тема Автор DL S | L
Азиатские фильмы [ 4.15 GB ] Прыжок с тарзанкой / Beonjijeompeureul hada [2001 BDRip 720p by msltel] VO msltel Скачать
1 | 0


>> Регистрируемся здесь <<






Отзывы и комментарии о схеме читаем и пишем здесь: ---> Отзывы и комментарии о схеме

Новые благодарочки в телеграм довольных пользователей:
скриншот   скриншот   скриншот   скриншот   скриншот
    Дорогой пользователь! Огромная просьба, поблагодарите релизера, оцените раздачу и оставьте свои комментарий, если Вы скачали Прыжок с тарзанкой через торрент бесплатно! Внесите свою лепту в развитие PiratBit!
    Комментировать посты могут только пользователи прошедшие не сложную регистрацию
    Показать сообщения:    

    Прыжок с тарзанкой через торрент
    Скачать бесплатно Прыжок с тарзанкой
    Прыжок с тарзанкой скачать торрент
    Прыжок с тарзанкой смотреть онлайн
    Cкачать фильм Прыжок с тарзанкой бесплатно
    Прыжок с тарзанкой скачать торрент в хорошем качестве
    Прыжок с тарзанкой смотреть онлайн бесплатно в хорошем качестве


    Вы не можете начинать темы
    Вы не можете отвечать на сообщения
    Вы не можете редактировать свои сообщения
    Вы не можете удалять свои сообщения
    Вы не можете голосовать в опросах
    Вы не можете прикреплять файлы к сообщениям
    Вы можете скачивать файлы