Ссылка на приватное зеркало всего за 1$. Внимание количество ограничено!!!

OK

1+1

iTunes

мы

OK

1

WEB-DLRip

Джокер

Пифагор

Ведьмак / The Witcher сериал

iTunes

ПШазам

ОК

Оно 2

iTunes

30
pack

Вам бонус

ВАЖНО

!!Акция!!

Alien_RageХит недели

RePack

Resident Evil 21

ИГРА 18+

pack

RePack

jed

RePack

fifa19

RePack

Assassins Creed: Odyssey

RePack

NEED FOR SPEED™ PAYBACK

4 сезон

9 сезон

Бесстыжие 9 сезон

Все сериалы

все сериалы на PB.wtf

RePack

FAR CRY 5
  

Баня (Анатолий Каранович, Сергей Юткевич) [1962, мультфильм, SATRip-AVC от AVP Studio] pb.wtf

Баня через торрент pb.wtf

Размер: 745 MB | Добавлен: 1 год 2 мес. назад | Торрент скачан:11 раз
Скачать  

23-11-2018 08:55 Баня Скачать торрент  

Баня
Страна: СССР
Производство: Союзмультфильм

Жанр: мультфильм
Год выпуска: 1962
Продолжительность: 00:50:41

Перевод: Не требуется
Cубтитры: нет
Оригинальная аудиодорожка: русский

Режиссер: Анатолий Каранович, Сергей Юткевич

В ролях:
Аркадий Райкин, Екатерина Райкина, Артур Эйзен...
Об актёрах подробней

Описание:
Экранизация одноименной пьесы Вл.Маяковского.
Уже очень давно и безуспешно пытаются пробиться к главному начальнику по управлению и согласованию - главначпупсу товарищу Победоносикову - изобретатели машины времени Чудаков и Велосипедкин. Их гоняют вперед и назад, направо и налево, а когда они оказываются у дверей кабинета Победоносикова, им преграждает путь фигура секретаря главначпупса Оптимистенко

Исходник: DVB
Качество видео: SATRip-AVC
Формат видео: MKV

Видео: 704->1055x480 (2,2:1), 25,000 кадров/сек, H264 ~ 1861 kbps avg, 0.220 bit/pixel
Аудио: 48 kHz, Dolby Digital AC3 2.0, 192 kbps

Раздача от:
Общее
Полное имя : Banya.1962.SATRip-AVC_[New-team]_by_AVP_Studio (1).mkv
Формат : Matroska
Версия формата : Version 4
Размер файла : 745 Мбайт
Продолжительность : 50 м. 41 с.
Общий поток : 2055 Кбит/сек
Дата кодирования : UTC 2018-11-23 08:47:35
Программа кодирования : mkvmerge v27.0.0 ('Metropolis') 64-bit
Библиотека кодирования : libebml v1.3.6 + libmatroska v1.4.9

Видео
Идентификатор : 1
Формат : AVC
Формат/Информация : Advanced Video Codec
Профиль формата : High@L4.1
Настройки формата : CABAC / 10 Ref Frames
Параметр CABAC формата : Да
Параметр RefFrames формата : 10 кадров
Идентификатор кодека : V_MPEG4/ISO/AVC
Продолжительность : 50 м. 41 с.
Битрейт : 1861 Кбит/сек
Ширина : 704 пикселя
Высота : 480 пикселей
Соотношение сторон : 2,2:1
Режим частоты кадров : Постоянный
Частота кадров : 25,000 кадров/сек
Цветовое пространство : YUV
Субдискретизация насыщенности : 4:2:0
Битовая глубина : 8 бит
Тип развёртки : Прогрессивная
Бит/(Пиксели*Кадры) : 0.220
Размер потока : 675 Мбайт (91%)
Библиотека кодирования : x264 core 157 r2932 303c484
Настройки программы : cabac=1 / ref=10 / deblock=1:-2:-1 / analyse=0x3:0x113 / me=umh / subme=10 / psy=1 / psy_rd=1.00:0.00 / mixed_ref=1 / me_range=32 / chroma_me=1 / trellis=2 / 8x8dct=1 / cqm=0 / deadzone=21,11 / fast_pskip=1 / chroma_qp_offset=-2 / threads=6 / lookahead_threads=1 / sliced_threads=0 / nr=0 / decimate=0 / interlaced=0 / bluray_compat=0 / constrained_intra=0 / bframes=8 / b_pyramid=2 / b_adapt=2 / b_bias=0 / direct=3 / weightb=1 / open_gop=0 / weightp=2 / keyint=250 / keyint_min=25 / scenecut=40 / intra_refresh=0 / rc=2pass / mbtree=0 / bitrate=1861 / ratetol=1.0 / qcomp=0.60 / qpmin=0 / qpmax=69 / qpstep=4 / cplxblur=20.0 / qblur=0.5 / ip_ratio=1.40 / pb_ratio=1.30 / aq=1:1.00
Язык : Russian
Default : Да
Forced : Нет

Аудио
Идентификатор : 2
Формат : AC-3
Формат/Информация : Audio Coding 3
Коммерческое название : Dolby Digital
Идентификатор кодека : A_AC3
Продолжительность : 50 м. 40 с.
Вид битрейта : Постоянный
Битрейт : 192 Кбит/сек
Каналы : 2 канала
Channel layout : L R
Частота : 48,0 КГц
Частота кадров : 31,250 кадров/сек (1536 SPF)
Битовая глубина : 16 бит
Метод сжатия : С потерями
Размер потока : 69,6 Мбайт (9%)
Язык : Russian
Default : Да
Forced : Нет
pb.wtf



Скачать Баня через торрент http://picplus.ru/img/1811/23/5dce2fa4.png Скачать фильм Баня через торрент бесплантно в хорошем качестве Описание:Экранизация одноименной пьесы Вл.Маяковского.Уже очень давно и безуспешно пытаются пробиться к главному начальнику по управлению и ... 10 10 1
Info! Золотая раздача, скачанное не засчитывается.
Торрент: Зарегистрирован [2018-11-23 08:55] · скачан: 11 раз
Статус: √ проверено
Размер: 745 MB
Как cкачать? Как скачать Баня через торрент | qTorrent

% Раздел Тема Автор DL S | L
Концерты [ 3.95 GB ] Аль Бано и Ромина Пауэр - Концерт Felicita [2018 POP HDTVRip-HEVC 1080p] Скорпион1976 Скачать
2 | 0
Наши мультфильмы [ 373 MB ] Баня [1962 мультфильм SATRip от AVP Studio] AVP Studio Скачать
1 | 0
Русское любительское видео [ 170 MB ] В дачной бане с блондинкой [2015 Amateur CamRip] Pir@tya2010 Скачать
2 | 0
T Релизы по Парсеру [Игры, Сериалы и Фильмы и другое...] [ 24.66 GB ] Сокровища Анимации: Папай Друпи-сыщик Багз Банни Поросёнок Порки. [1935-1954 Мультфильмы 6 x DVD5] bober100 Скачать
1 | 0
Гонзо [ 1.16 GB ] Баня / Steam [2017 Foreign Fetish Foot Fetish Footjob Big Tits IR Threesome Gonzo DVDRip] Pir@tya2010 Скачать
1 | 0
Фильмы до 2000 г. [ 1.45 GB ] Бананы / Bananas [1971 BDRip] MVO 2xDVO koenig Скачать
1 | 0
Наши фильмы, до 2010 [ 2.84 GB ] Особенности Русской бани 1-2 [1999-2000 эротика DVDRip] killermax2013 Скачать
3 | 0

28-11-2019 20:33  

Отключить всю рекламу на сайте

    Дорогой пользователь! Огромная просьба, поблагодарите релизера, оцените раздачу и оставьте свои комментарий, если Вы скачали Баня через торрент бесплатно! Внесите свою лепту в развитие PiratBit!
    Комментировать посты могут только пользователи прошедшие не сложную регистрацию
    Показать сообщения:    

    Баня через торрент
    Скачать бесплатно Баня
    Баня скачать торрент
    Баня смотреть онлайн
    Cкачать фильм Баня бесплатно
    Баня скачать торрент в хорошем качестве
    Баня смотреть онлайн бесплатно в хорошем качестве


    Вы не можете начинать темы
    Вы не можете отвечать на сообщения
    Вы не можете редактировать свои сообщения
    Вы не можете удалять свои сообщения
    Вы не можете голосовать в опросах
    Вы не можете прикреплять файлы к сообщениям
    Вы можете скачивать файлы