Ссылка на приватное зеркало всего за 1$. Внимание количество ограничено!!!

iTunes

iTunes

iTunes

1

iTunes

iTunes

iTunes

iTunes

iTunes

30
pack

Новость дня

ВАЖНО

!!Акция!!

Alien_RageХит недели

RePack

Resident Evil 21

ИГРА 18+

pack

RePack

jed

!!Акция!!

Alien_Rage

RePack

fifa19

RePack

Assassins Creed: Odyssey

RePack

NEED FOR SPEED™ PAYBACK

4 сезон

9 сезон

Бесстыжие 9 сезон

Все сериалы

все сериалы на PB.wtf

RePack

FAR CRY 5
  

Призрак лагеря "Кровь" / Ghost of Camp Blood (Марк Полония) [2018, Ужасы, WEB-DL 720p] MVO ["Синема УС"] pb.wtf

Призрак лагеря "Кровь" через торрент pb.wtf

Размер: 2.76 GB | Добавлен: 1 год 4 мес. назад | Торрент скачан:17 раз
Скачать  

01-12-2018 21:56 Призрак лагеря "Кровь" Скачать торрент  

Призрак лагеря "Кровь" / Ghost of Camp BloodГод выпуска: 2018
Страна: США
Жанр: Ужасы
Продолжительность: 01:16:05
Перевод: Любительский (многоголосый) | "Синема УС"
Субтитры: отсутствуют

Режиссер: Марк Полония

rating

В ролях:

Стив Диаспарра, Элисса Даулинг, Джейми Морган, Мэрайя Джойс, Мария Дэвис, Тим Хэтч, Джефф Киркендалл, Марк Полония, Кайл Раппапорт

Описание:

После того, как легендарный убийца леса Блэквуд в маске клоуна погибает от рук полиции, его дело не умирает вместе с ним. Призрак маньяка продолжает блуждать по лесу в попытке вернуться в мир живых и продолжить убивать.

Качество: WEB-DL 720p
Формат: MKV

Видео: h.264 4 804 kb/s, 1280x720
Аудио#1: Русский, (AC3, 2 ch, 384 Кбит/с)
скриншот  скриншот  скриншот  

Общее
Уникальный идентификатор : 230089197541126237099948719660206467067 (0xAD19914A763F63D0AB5390F2BDD527FB)
Полное имя : D:\Ghost.of.Camp.Blood.2018.P.WEB-DL.72Op_KOSHARA.mkv
Формат : Matroska
Версия формата : Version 2
Размер файла : 2,76 Гбайт
Продолжительность : 1 ч. 16 м.
Режим общего битрейта : Переменный
Общий поток : 5190 Кбит/сек
Дата кодирования : UTC 2018-12-01 17:28:37
Программа кодирования : mkvmerge v8.3.0 ('Over the Horizon') 64bit
Библиотека кодирования : libebml v1.3.1 + libmatroska v1.4.2

Видео
Идентификатор : 1
Формат : AVC
Формат/Информация : Advanced Video Codec
Профиль формата : High@L4.1
Параметр CABAC формата : Да
Параметр RefFrames формата : 4 кадра
Идентификатор кодека : V_MPEG4/ISO/AVC
Продолжительность : 1 ч. 16 м.
Вид битрейта : Переменный
Битрейт : 4804 Кбит/сек
Максимальный битрейт : 5500 Кбит/сек
Ширина : 1280 пикселей
Высота : 720 пикселей
Соотношение сторон : 16:9
Режим частоты кадров : Постоянный
Частота кадров : 23,976 (24000/1001) кадра/сек
Стандарт вещания : Component
Цветовое пространство : YUV
Субдискретизация насыщенности : 4:2:0
Битовая глубина : 8 бит
Тип развёртки : Прогрессивная
Бит/(Пиксели*Кадры) : 0.213
Размер потока : 2,50 Гбайт (91%)
Default : Да
Forced : Нет
Цветовой диапазон : Limited
Основные цвета : BT.709
Характеристики трансфера : BT.709
Коэффициенты матрицы : BT.709

Аудио
Идентификатор : 2
Формат : AC-3
Формат/Информация : Audio Coding 3
Расширение режима : CM (complete main)
Параметр Endianness формата : Big
Идентификатор кодека : A_AC3
Продолжительность : 1 ч. 16 м.
Вид битрейта : Постоянный
Битрейт : 384 Кбит/сек
Каналы : 2 канала
Расположение каналов : Front: L R
Частота : 48,0 КГц
Частота кадров : 31,250 кадров/сек (1536 spf)
Метод сжатия : С потерями
Размер потока : 209 Мбайт (7%)
Default : Да
Forced : Нет

pb.wtf



Скачать Призрак лагеря "Кровь" через торрент https://d.radikal.ru/d39/1812/14/61bb8e434dce.jpg Скачать фильм Призрак лагеря "Кровь" через торрент бесплантно в хорошем качестве Описание: После того, как легендарный убийца леса Блэквуд в маске клоуна погибает от рук полиции, его дело не умирает вместе с ним. Призрак ... 10 10 2
Торрент: Зарегистрирован [2018-12-01 21:56] · скачан: 17 раз
Статус: T временная
Размер: 2.76 GB
Как cкачать? Как скачать Призрак лагеря "Кровь" через торрент | qTorrent

28-11-2019 20:33  

Отключить всю рекламу на сайте

    Дорогой пользователь! Огромная просьба, поблагодарите релизера, оцените раздачу и оставьте свои комментарий, если Вы скачали Призрак лагеря "Кровь" через торрент бесплатно! Внесите свою лепту в развитие PiratBit!
    Комментировать посты могут только пользователи прошедшие не сложную регистрацию
    Показать сообщения:    

    Призрак лагеря "Кровь" через торрент
    Скачать бесплатно Призрак лагеря "Кровь"
    Призрак лагеря "Кровь" скачать торрент
    Призрак лагеря "Кровь" смотреть онлайн
    Cкачать фильм Призрак лагеря "Кровь" бесплатно
    Призрак лагеря "Кровь" скачать торрент в хорошем качестве
    Призрак лагеря "Кровь" смотреть онлайн бесплатно в хорошем качестве


    Вы не можете начинать темы
    Вы не можете отвечать на сообщения
    Вы не можете редактировать свои сообщения
    Вы не можете удалять свои сообщения
    Вы не можете голосовать в опросах
    Вы не можете прикреплять файлы к сообщениям
    Вы можете скачивать файлы