Ссылка на приватное зеркало нашего сайта всего за 1$. Внимание количество ограничено!!!

2 сезон

iTunes

1 сезон

1

2 сезон

2 сезон

iTunes

1 сезон

RePack

30

Новинка

ВАЖНО

ИГРА 18+

pack

RePack

MK11
pack

Забери бонус

RePack

jed

!!Акция!!

Alien_Rage

RePack

fifa19

RePack

Assassins Creed: Odyssey

RePack

NEED FOR SPEED™ PAYBACK

4 сезон

9 сезон

Бесстыжие 9 сезон

Все сериалы

все сериалы на PB.wtf

RePack

FAR CRY 5
  

Гофманиада (Станислав Соколов) [2018, мультфильм, WEB-DL 1080p] [Line] pb.wtf

Гофманиада через торрент pb.wtf

Размер: 3.06 GB | Добавлен: 1 год 11 мес. назад | Торрент скачан:103 раза
Скачать  

02-12-2018 09:27 Гофманиада Скачать торрент  

Гофманиада Год выпуска: 2018
Страна: Россия
Жанр: мультфильм
Продолжительность: 01:11:20
Перевод: Не требуется | Line
Субтитры: отсутствуют

Режиссер: Станислав Соколов

rating

В ролях:

Владимир Кошевой, Вячеслав Полунин, Наталия Фиссон, Анвар Либабов, Анна Артамонова, Алексей Петренко, Павел Любимцев, Александр Ширвиндт

Описание:

Главный герой фильма - Эрнст Гофман, молодой юрист, музыкант и писатель, который живет сразу в двух измерениях: воображаемом мире собственных произведений и в обычной реальности небольшого немецкого городка. В образах своих героев Гофману предстоит пережить самые удивительные и полные опасностей приключения, которые могут оказаться не просто фантазиями из его собственных сказок.

Качество: WEB-DL 1080p
Формат: MKV

Видео: h.264, 5 741 Кбит/с, 1920x1080
Аудио#1: Русский, (AC3, 2 ch, 384 Кбит/с)
скриншот  скриншот  скриншот  

Общее
Уникальный идентификатор : 223741924961733971319602889382816907813 (0xA85320976118A8D5A8C0A17DF1240225)
Полное имя : D:\HoFmaNiada.2O18.O.WEB-DL.1O8Op.mkv
Формат : Matroska
Версия формата : Version 2
Размер файла : 3,06 Гбайт
Продолжительность : 1 ч. 11 м.
Режим общего битрейта : Переменный
Общий поток : 6127 Кбит/сек
Дата кодирования : UTC 2018-12-02 02:01:15
Программа кодирования : mkvmerge v8.3.0 ('Over the Horizon') 64bit
Библиотека кодирования : libebml v1.3.1 + libmatroska v1.4.2

Видео
Идентификатор : 2
Формат : AVC
Формат/Информация : Advanced Video Codec
Профиль формата : High@L4.1
Параметр CABAC формата : Да
Параметр RefFrames формата : 4 кадра
Идентификатор кодека : V_MPEG4/ISO/AVC
Продолжительность : 1 ч. 11 м.
Вид битрейта : Переменный
Битрейт : 5741 Кбит/сек
Максимальный битрейт : 6500 Кбит/сек
Ширина : 1920 пикселей
Высота : 1080 пикселей
Соотношение сторон : 16:9
Режим частоты кадров : Постоянный
Частота кадров : 23,976 (24000/1001) кадра/сек
Стандарт вещания : Component
Цветовое пространство : YUV
Субдискретизация насыщенности : 4:2:0
Битовая глубина : 8 бит
Тип развёртки : Прогрессивная
Бит/(Пиксели*Кадры) : 0.113
Размер потока : 2,80 Гбайт (92%)
Default : Да
Forced : Нет
Цветовой диапазон : Limited
Основные цвета : BT.709
Характеристики трансфера : BT.709
Коэффициенты матрицы : BT.709

Аудио
Идентификатор : 1
Формат : AC-3
Формат/Информация : Audio Coding 3
Расширение режима : CM (complete main)
Параметр Endianness формата : Big
Идентификатор кодека : A_AC3
Продолжительность : 1 ч. 11 м.
Вид битрейта : Постоянный
Битрейт : 384 Кбит/сек
Каналы : 2 канала
Расположение каналов : Front: L R
Частота : 48,0 КГц
Частота кадров : 31,250 кадров/сек (1536 spf)
Метод сжатия : С потерями
Размер потока : 196 Мбайт (6%)
Default : Да
Forced : Нет

pb.wtf



Скачать Гофманиада через торрент http://img14.lostpic.net/2018/12/02/96754faef0f53f24aa1a3a773071ed29.jpg Скачать фильм Гофманиада через торрент бесплантно в хорошем качестве Описание: Главный герой фильма - Эрнст Гофман, молодой юрист, музыкант и писатель, который живет сразу в двух измерениях: воображаемом мире ... 9.8 10 6
Торрент: Зарегистрирован [2018-12-02 09:27] · скачан: 103 раз
Статус: T временная
Размер: 3.06 GB
Как cкачать? Как скачать Гофманиада через торрент | qTorrent

% Раздел Тема Автор DL S | L
T Наши фильмы (мультфильмы) cо спонсором показа (Новинки AVI/MKV) [ 2.89 GB ] Гофманиада [2018 мультфильм WEB-DL 720p] [Line] bober100 Скачать
1 | 0
T Наши фильмы (мультфильмы) cо спонсором показа (Новинки AVI/MKV) [ 1.37 GB ] Гофманиада [2018 мультфильм WEB-DLRip] [Line] bober100 Скачать
2 | 0


Последний раз редактировалось: bober100 (2018-12-05 10:25), всего редактировалось 1 раз

28-11-2019 20:33  

Отключить всю рекламу на сайте

03-12-2018 10:07 Гофманиада Скачать торрент  

ЭТО улёт.Спасибо за раздачу..Сказки супер красочные и как всегда поучительные..в отличии от современной хайтай гадости...так что смотреть всем ..pb.wtf



03-12-2018 11:02 Гофманиада Скачать торрент  

tortona7 писал(а):

ЭТО улёт.Спасибо за раздачу..Сказки супер красочные и как всегда поучительные..в отличии от современной хайтай гадости...так что смотреть всем ..

вот не знаю) но меня почему то жуть проберает от такой мультипликацииpb.wtf



    Дорогой пользователь! Огромная просьба, поблагодарите релизера, оцените раздачу и оставьте свои комментарий, если Вы скачали Гофманиада через торрент бесплатно! Внесите свою лепту в развитие PiratBit!
    Комментировать посты могут только пользователи прошедшие не сложную регистрацию
    Показать сообщения:    

    Гофманиада через торрент
    Скачать бесплатно Гофманиада
    Гофманиада скачать торрент
    Гофманиада смотреть онлайн
    Cкачать фильм Гофманиада бесплатно
    Гофманиада скачать торрент в хорошем качестве
    Гофманиада смотреть онлайн бесплатно в хорошем качестве


    Вы не можете начинать темы
    Вы не можете отвечать на сообщения
    Вы не можете редактировать свои сообщения
    Вы не можете удалять свои сообщения
    Вы не можете голосовать в опросах
    Вы не можете прикреплять файлы к сообщениям
    Вы можете скачивать файлы