Всегда рабочее зеркало без VPN и Proxy просто перед .vidak.icu напиши любое слово или цифру, Пример http://wofv.vidak.icu

MVO

MVO

1 сезон

1

1 сезон

iTunes

1 сезон

13

1 сезон

Deluxe

pack

Рекомендуем

Repack

30

ВАЖНО

RePack

MK11

RePack

jed

RePack

fifa19

RePack

RDR2

RePack

NEED FOR SPEED™ PAYBACK

Кинопоиск HD

6 сезон

 Острые козырьки 6 сезон

Все сериалы

все сериалы на PB.wtf

RePack

FAR CRY 5
  
Magnet ссылка

Дизайн жизни: Трилогия / The Design of Life: Collection [01-03][2011-2015г., Документальный,HDRip 1080p, Любительский (двуголосый)] pb.wtf

Дизайн жизни: Трилогия через торрент pb.wtf

Размер: 5.02 GB | Добавлен: 3 года 8 мес. назад | Торрент скачан:11 раз
Смотреть онлайн Дизайн жизни: Трилогия | Скачать    Ребята, помогите собрать деньги на оплату серверов!!!

05-12-2018 10:42 Дизайн жизни: Трилогия Скачать торрент  



Информация о фильме

Название: Дизайн Жизни: Трилогия

Оригинальное название: The Design of Life: Collection

Год выхода: 2011-2015

Жанр: документальный, научно-популярный, креационизм, семейный, природа

Режиссер: Лед Аллен

Страна: США

Студия: Illustra Media

Продолжительность: 3 x ~01:00:00

Перевод: Любительский (двухголосый, закадровый)

В ролях: Элвин Чеа, Пол Нельсон, Тимоти Стандиш, Энн Гаугер, Томас Иммель, Дилан Винтер, Карстен Эгеван, Ричард Стрингер, Глен Гетли, Дейв Андерсон, Стивен Дунбар, Роланд Боендер

О фильме:

Каждый эпизод «Дизайна Жизни» исследует новое царство животного мира и замечательные биологические системы, которые делают возможной жизнь на Земле.
Этот фильм является увлекательным исследованием жизни в жидкой вселенной, которая охватывает более 70% нашей планеты.

Снятый в Канаде, Бермудских островах, Полинезии, Мексике и США, он отмечает красоту и великолепие биологических систем, которые делают возможной жизнь в океанах. Выдающаяся кинематография и компьютерная анимация открывают удивительные факты, среди которых:

Впечатляющий тур по внутренней гидролокационной системе дельфина - настолько мощный и точный механизм, что животные могут найти и поймать маленькую рыбку, зарытую в песок.

Магнитный компас, встроенный в голову морской черепахи - биологическое чудо, которое направляет этих путешественников на дальние расстояния, преодолеть тысячи километров открытого моря.

Удивительное обоняние тихоокеанского лосося - сложный навигационный помощник, который через годы возвращает рыбу из океана к ручью с гравием, в котором она родилась.

Сила и величественная грация горбатого кита - существо, чьё существование бросает вызов Теории дарвиновской эволюции.

Каждый этап этой кинематографической одиссеи поддерживается передовыми научными исследованиями и убедительными доказательствами в пользу цели и дизайна. ЖИВЫЕ ВОДЫ - незабываемый фильм, который бросает вызов научному материализму с вечной истиной о происхождении сложной жизни на Земле.
На протяжении всей истории бабочки очаровывали художников и философов, ученых и школьников своей глубокой тайной и красотой. В Метаморфозе Вы познакомитесь с их замечательным миром так, как это было под силу совсем немногим ранее.

Захватывающая фотография, компьютерная анимация и магнитно-резонансная томография открывают некогда закрытые двери на каждый этап жизненного цикла бабочки. От яйца размером с булавочную головку до великолепного летающего насекомого. Это трансформация, которую выдающиеся биологи называют «Волшебной бабочкой».

Великолепно спроектированное тело бабочки увеличено в сотни раз, чтобы открыть сложные глаза, сделанные из тысяч отдельных линз, крылья, покрытые микроскопическими солнечными панелями, и навигационные системы, которые безошибочно помогают бабочкам Монарх при их ежегодной миграции из Канады в Мексику.

Как появились эти необычные существа? Являются ли они продуктами слепого, ненаправленного процесса? Или они были разработаны разумным замыслом?

Снятый в Северной, Центральной и Южной Америке фильм "Метаморфоз" - это незабываемый документальный фильм, наполненный радостями открытия и удивления.
Снятый в Северной Америке, Англии, Перу, Гренландии и Антарктике, "Полёт" исследуют тайны и механизмы птичьей анатомии, инстинкта и эмбриологии, чтобы показать невероятные условия, необходимые для жизни в небе.

◆ Вы будете восхищаться уникальными скелетными, мышечными и метаболическими системами колибри, которые жизненно важны для её захватывающей воздушной акробатики.

◆ Выносливость и навигационные способности арктической крачки, когда она перемещается от полюса к полюсу во время самой продолжительной миграции на планете.

◆ Инстинктивные стратегии, которые позволяют стае из 300 000 европейских скворцов уклоняться от хищников на головокружительной скорости.

◆ Искусно разработанная сеть из миллионов компонентов, которые делают перо аэродинамическим шедевром. И многое другое.

Поэт Уильям Блейк писал, что увидев орла в полёте - вы наблюдаете «частицу гения». В "Полёте" показана изобретательность поведения и строения птицы, демонстрирующие очевидные доказательства замысла, цели и плана. Они являются проявлением гениальности, которые лучше всего объясняются интеллектом и намерением.





Файл

Кодек: h.264

Качество: HDRip 1080p

Видео: 1920x1080, 3440-4400 KBit/sec, 29.97 fps

Звук: AAC, 192 KBit/sec, 48 KHz, Stereo
Общее

Полное имя : ЖИВЫЕ ВОДЫ - Разумный замысел в земных океанах.mp4

Формат : MPEG-4

Профиль формата : Base Media

Идентификатор кодека : isom (isom/iso2/avc1/mp41)

Размер файла : 1,90 Гбайт

Продолжительность : 59 м. 13 с.

Общий поток : 4603 Кбит/сек

Программа кодирования : Lavf58.12.100

Видео

Идентификатор : 1

Формат : AVC

Формат/Информация : Advanced Video Codec

Профиль формата : [email protected]

Настройки формата : CABAC / 4 Ref Frames

Параметр CABAC формата : Да

Параметр RefFrames формата : 4 кадра

Идентификатор кодека : avc1

Идентификатор кодека/Информация : Advanced Video Coding

Продолжительность : 59 м. 13 с.

Битрейт : 4402 Кбит/сек

Ширина : 1920 пикселей

Высота : 1080 пикселей

Соотношение сторон : 16:9

Режим частоты кадров : Постоянный

Частота кадров : 29,970 (30000/1001) кадров/сек

Цветовое пространство : YUV

Субдискретизация насыщенности : 4:2:0

Битовая глубина : 8 бит

Тип развёртки : Прогрессивная

Бит/(Пиксели*Кадры) : 0.071

Размер потока : 1,82 Гбайт (96%)

Библиотека кодирования : x264 core 148

Настройки программы : cabac=1 / ref=2 / deblock=1:0:0 / analyse=0x3:0x113 / me=hex / subme=4 / psy=1 / psy_rd=1,00:0,00 / mixed_ref=0 / me_range=16 / chroma_me=1 / trellis=1 / 8x8dct=1 / cqm=0 / deadzone=21,11 / fast_pskip=1 / chroma_qp_offset=0 / threads=2 / lookahead_threads=1 / sliced_threads=0 / nr=0 / decimate=1 / interlaced=0 / bluray_compat=0 / constrained_intra=0 / bframes=3 / b_pyramid=2 / b_adapt=1 / b_bias=0 / direct=1 / weightb=1 / open_gop=0 / weightp=1 / keyint=120 / keyint_min=12 / scenecut=40 / intra_refresh=0 / rc_lookahead=20 / rc=crf / mbtree=1 / crf=23,0 / qcomp=0,60 / qpmin=0 / qpmax=69 / qpstep=4 / ip_ratio=1,40 / aq=1:1,00

Цветовой диапазон : Limited

Характеристики трансфера : BT.709

Коэффициенты матрицы : BT.709

Codec configuration box : avcC

Аудио

Идентификатор : 2

Формат : AAC LC

Формат/Информация : Advanced Audio Codec Low Complexity

Идентификатор кодека : mp4a-40-2

Продолжительность : 59 м. 13 с.

Вид битрейта : Постоянный

Битрейт : 192 Кбит/сек

Каналы : 2 канала

Channel layout : L R

Частота : 48,0 КГц

Частота кадров : 46,875 кадров/сек (1024 SPF)

Метод сжатия : С потерями

Размер потока : 81,6 Мбайт (4%)

Default : Да

Общее

Полное имя : МЕТАМОРФОЗ - Красота и дизайн бабочек.mp4

Формат : MPEG-4

Профиль формата : Base Media

Идентификатор кодека : isom (isom/iso2/avc1/mp41)

Размер файла : 1,60 Гбайт

Продолжительность : 1 ч. 2 м.

Общий поток : 3640 Кбит/сек

Программа кодирования : Lavf58.12.100

Видео

Идентификатор : 1

Формат : AVC

Формат/Информация : Advanced Video Codec

Профиль формата : [email protected]

Настройки формата : CABAC / 4 Ref Frames

Параметр CABAC формата : Да

Параметр RefFrames формата : 4 кадра

Идентификатор кодека : avc1

Идентификатор кодека/Информация : Advanced Video Coding

Продолжительность : 1 ч. 2 м.

Битрейт : 3439 Кбит/сек

Ширина : 1920 пикселей

Высота : 1080 пикселей

Соотношение сторон : 16:9

Режим частоты кадров : Постоянный

Частота кадров : 29,970 (30000/1001) кадров/сек

Цветовое пространство : YUV

Субдискретизация насыщенности : 4:2:0

Битовая глубина : 8 бит

Тип развёртки : Прогрессивная

Бит/(Пиксели*Кадры) : 0.055

Размер потока : 1,51 Гбайт (94%)

Библиотека кодирования : x264 core 148

Настройки программы : cabac=1 / ref=2 / deblock=1:0:0 / analyse=0x3:0x113 / me=hex / subme=4 / psy=1 / psy_rd=1,00:0,00 / mixed_ref=0 / me_range=16 / chroma_me=1 / trellis=1 / 8x8dct=1 / cqm=0 / deadzone=21,11 / fast_pskip=1 / chroma_qp_offset=0 / threads=2 / lookahead_threads=1 / sliced_threads=0 / nr=0 / decimate=1 / interlaced=0 / bluray_compat=0 / constrained_intra=0 / bframes=3 / b_pyramid=2 / b_adapt=1 / b_bias=0 / direct=1 / weightb=1 / open_gop=0 / weightp=1 / keyint=120 / keyint_min=12 / scenecut=40 / intra_refresh=0 / rc_lookahead=20 / rc=crf / mbtree=1 / crf=23,0 / qcomp=0,60 / qpmin=0 / qpmax=69 / qpstep=4 / ip_ratio=1,40 / aq=1:1,00

Цветовой диапазон : Limited

Характеристики трансфера : BT.709

Коэффициенты матрицы : BT.709

Codec configuration box : avcC

Аудио

Идентификатор : 2

Формат : AAC LC

Формат/Информация : Advanced Audio Codec Low Complexity

Идентификатор кодека : mp4a-40-2

Продолжительность : 1 ч. 2 м.

Вид битрейта : Постоянный

Битрейт : 192 Кбит/сек

Каналы : 2 канала

Channel layout : L R

Частота : 48,0 КГц

Частота кадров : 46,875 кадров/сек (1024 SPF)

Метод сжатия : С потерями

Размер потока : 86,6 Мбайт (5%)

Default : Да

Общее

Полное имя : ПОЛЁТ - Гениальность, воплощённая в птицах.mp4

Формат : MPEG-4

Профиль формата : Base Media

Идентификатор кодека : isom (isom/iso2/avc1/mp41)

Размер файла : 1,52 Гбайт

Продолжительность : 59 м. 14 с.

Общий поток : 3674 Кбит/сек

Программа кодирования : Lavf58.12.100

Видео

Идентификатор : 1

Формат : AVC

Формат/Информация : Advanced Video Codec

Профиль формата : [email protected]

Настройки формата : CABAC / 4 Ref Frames

Параметр CABAC формата : Да

Параметр RefFrames формата : 4 кадра

Идентификатор кодека : avc1

Идентификатор кодека/Информация : Advanced Video Coding

Продолжительность : 59 м. 14 с.

Битрейт : 3473 Кбит/сек

Ширина : 1920 пикселей

Высота : 1080 пикселей

Соотношение сторон : 16:9

Режим частоты кадров : Постоянный

Частота кадров : 29,970 (30000/1001) кадров/сек

Цветовое пространство : YUV

Субдискретизация насыщенности : 4:2:0

Битовая глубина : 8 бит

Тип развёртки : Прогрессивная

Бит/(Пиксели*Кадры) : 0.056

Размер потока : 1,44 Гбайт (95%)

Библиотека кодирования : x264 core 148

Настройки программы : cabac=1 / ref=2 / deblock=1:0:0 / analyse=0x3:0x113 / me=hex / subme=4 / psy=1 / psy_rd=1,00:0,00 / mixed_ref=0 / me_range=16 / chroma_me=1 / trellis=1 / 8x8dct=1 / cqm=0 / deadzone=21,11 / fast_pskip=1 / chroma_qp_offset=0 / threads=2 / lookahead_threads=1 / sliced_threads=0 / nr=0 / decimate=1 / interlaced=0 / bluray_compat=0 / constrained_intra=0 / bframes=3 / b_pyramid=2 / b_adapt=1 / b_bias=0 / direct=1 / weightb=1 / open_gop=0 / weightp=1 / keyint=120 / keyint_min=12 / scenecut=40 / intra_refresh=0 / rc_lookahead=20 / rc=crf / mbtree=1 / crf=23,0 / qcomp=0,60 / qpmin=0 / qpmax=69 / qpstep=4 / ip_ratio=1,40 / aq=1:1,00

Цветовой диапазон : Limited

Характеристики трансфера : BT.709

Коэффициенты матрицы : BT.709

Codec configuration box : avcC

Аудио

Идентификатор : 2

Формат : AAC LC

Формат/Информация : Advanced Audio Codec Low Complexity

Идентификатор кодека : mp4a-40-2

Продолжительность : 59 м. 14 с.

Вид битрейта : Постоянный

Битрейт : 192 Кбит/сек

Каналы : 2 канала

Channel layout : L R

Частота : 48,0 КГц

Частота кадров : 46,875 кадров/сек (1024 SPF)

Метод сжатия : С потерями

Размер потока : 81,6 Мбайт (5%)

Default : Да
скриншот  скриншот  скриншот  
Релиз от: 1-й Креационистский Киевский Астроклуб
pb.wtf



Скачать Дизайн жизни: Трилогия через торрент https://b.radikal.ru/b40/1812/2a/9a4ae436c48e.jpg Скачать, смотреть онлайн Дизайн жизни: Трилогия бесплантно в хорошем качестве О фильме:Каждый эпизод «Дизайна Жизни» исследует новое царство животного мира и замечательные биологические системы, которые делают ... 10 10 1
Торрент: Зарегистрирован [2018-12-05 10:42] · скачан: 11 раз
Статус: √ проверено
Размер: 5.02 GB
Как cкачать? Как скачать Дизайн жизни: Трилогия через торрент | UTorrent

28-11-2019 20:33  

Отключить вcю реклaмy на сайте

    Дорогой пользователь! Огромная просьба, поблагодарите релизера, оцените раздачу и оставьте свои комментарий, если Вы скачали Дизайн жизни: Трилогия через торрент бесплатно!
    Комментировать посты могут только пользователи прошедшие не сложную регистрацию
    Показать сообщения:    

    Дизайн жизни: Трилогия через торрент
    Скачать бесплатно Дизайн жизни: Трилогия
    Дизайн жизни: Трилогия скачать торрент
    Дизайн жизни: Трилогия смотреть онлайн
    Cкачать фильм Дизайн жизни: Трилогия бесплатно
    Дизайн жизни: Трилогия скачать торрент в хорошем качестве
    Дизайн жизни: Трилогия смотреть онлайн бесплатно в хорошем качестве


    Вы не можете начинать темы
    Вы не можете отвечать на сообщения
    Вы не можете редактировать свои сообщения
    Вы не можете удалять свои сообщения
    Вы не можете голосовать в опросах
    Вы не можете прикреплять файлы к сообщениям
    Вы можете скачивать файлы